Запаморочливі фантазії Чарлі Свона ІІI / A Glimpse Inside the Mind of Charles Swan III (2012) AVC Ukr/Eng

Нові коментарі

Нова тема   Відповісти
Автор Повідомлення
staf777 
Відео Гуртом - підтримка та поширення
Відео Гуртом - підтримка та поширення


З нами з: 16.11.16
Востаннє: 03.07.20
Повідомлень: 3788

2020-06-16 10:02  
Запаморочливі фантазії Чарлі Свона ІІI / A Glimpse Inside the Mind of Charles Swan III (2012) AVC Ukr/Eng

Запаморочливі фантазії Чарлі Свона ІІI / A Glimpse Inside the Mind of Charles Swan III (2012) AVC Ukr/Eng


Жанр: комедія
Країна: США



Кінокомпанія: American Zoetrope
Режисер: Роман Коппола
Актори: Чарлі Шин, Джейсон Шварцман, Білл Мюррей, Кетрін Віннік, Патриція Аркетт, Обрі Плаза, Дермот Малруні, Мері Елізабет Уїнстед, Пол Беншуф, Анджела Ліндвелл

Сюжет:
Чарлі Свон-третій - власник рекламного агентства, а ще гульвіса і бабій, який живе лише сьогоднішнім днем. Коли ж Чарлі знайомиться з Івон, то вирішує змінити своє життя і взагалі стати іншою людиною. Але Чарлі забув викинути колекцію фотографій, де він зображений з усіма своїми колишніми подружками, а Івон випадково ті фото знаходить. Тепер його єдина розрада - фантазії, в яких він герой, а врятована ним Івон кидається в його обійми.


Тривалість: 01:25:49
Якість: AVC
Відео:
кодек:
розмір кадру: 1024x554
бітрейт: 2000 кб/с

Аудіо # 1:
мова: українська
переклад: багатоголосий закадровий
кодек: 5.1
бітрейт: 448 кб/с

Аудіо # 2:
мова: англійська
переклад: оригінал
кодек: 5.1
бітрейт: 448 кб/с
MI
General
Unique ID : 318232105893626475352915721227427039299 (0xEF6946320299EA9776060E524072C843)
Complete name : Z:\Фільми AVC\Комедія\A Glimpse Inside the Mind of Charles Swan III (2012) AVC [UKR_ENG] [Hurtom].
Format :
Format version : Version 4
File size : 1.58 GiB
Duration : 1 h 25 min
Overall bit rate : 2 639 kb/s
Movie name : Запаморочливі фантазії Чарлі Свона ІІI / A Glimpse Inside the Mind of Charles Swan III (2012) AVC [UKR_ENG] [Hurtom]
Encoded date : UTC 2020-06-16 09:31:05
Writing application : v46.0.0 ('No Deeper Escape') 64-bit
Writing library : libebml v1.3.10 + v1.5.2
Cover : Yes
Attachments : cover.jpg

Video
ID : 1
Format : AVC
Format/Info : Advanced Video Codec
Format profile : [email protected]
Format settings : CABAC / 9 Ref Frames
Format settings, CABAC : Yes
Format settings, Reference : 9 frames
Codec ID : V_MPEG4/ISO/AVC
Duration : 1 h 25 min
Bit rate : 2 000 kb/s
Width : 1 024 pixels
Height : 554 pixels
Display aspect ratio : 1.85:1
Frame rate mode : Constant
Frame rate : 23.976 (24000/1001) FPS
Color space : YUV
Chroma subsampling : 4:2:0
Bit depth : 8 bits
Scan type : Progressive
Bits/(Pixel*Frame) : 0.147
Stream size : 1.20 GiB (76%)
Title : MediaClub-kaspr
Writing library : core 133 r2334 a3ac64b
Encoding settings : cabac=1 / ref=9 / deblock=1:-3:-3 / analyse=0x3:0x133 / me=umh / subme=11 / psy=1 / psy_rd=1.00:0.10 / mixed_ref=1 / me_range=32 / chroma_me=1 / trellis=2 / 8x8dct=1 / cqm=0 / deadzone=21,11 / fast_pskip=0 / chroma_qp_offset=-3 / threads=12 / lookahead_threads=3 / sliced_threads=0 / nr=0 / decimate=0 / interlaced=0 / bluray_compat=0 / constrained_intra=0 / bframes=10 / b_pyramid=2 / b_adapt=2 / b_bias=0 / direct=3 / weightb=1 / open_gop=0 / weightp=2 / keyint=240 / keyint_min=22 / scenecut=40 / intra_refresh=0 / rc=2pass / mbtree=0 / bitrate=2000 / ratetol=1.0 / qcomp=0.60 / qpmin=0 / qpmax=69 / qpstep=4 / cplxblur=20.0 / qblur=0.5 / ip_ratio=1.40 / pb_ratio=1.30 / aq=1:1.00
Default : Yes
Forced : No

Audio #1
ID : 2
Format : AC-3
Format/Info : Audio Coding 3
Commercial name : Dolby Digital
Codec ID : A_AC3
Duration : 1 h 25 min
Bit rate mode : Constant
Bit rate : 192 kb/s
Channel(s) : 2 channels
Channel layout : L R
Sampling rate : 48.0 kHz
Frame rate : 31.250 FPS (1536 SPF)
Compression mode : Lossy
Stream size : 118 MiB (7%)
Title : АC3 2.0 @ 192 кб/с | багатоголосий закадровий
Language : Ukrainian
Service kind : Complete Main
Default : Yes
Forced : Yes

Audio #2
ID : 3
Format : AC-3
Format/Info : Audio Coding 3
Commercial name : Dolby Digital
Codec ID : A_AC3
Duration : 1 h 25 min
Bit rate mode : Constant
Bit rate : 448 kb/s
Channel(s) : 6 channels
Channel layout : L R C LFE Ls Rs
Sampling rate : 48.0 kHz
Frame rate : 31.250 FPS (1536 SPF)
Compression mode : Lossy
Stream size : 275 MiB (17%)
Title : Оригінал
Language : English
Service kind : Complete Main
Default : No
Forced : No

Menu
00:00:00.000 : en:Chapter 01
00:05:41.632 : en:Chapter 02
00:11:51.627 : en:Chapter 03
00:15:13.120 : en:Chapter 04
00:31:29.345 : en:Chapter 05
00:39:17.772 : en:Chapter 06
00:44:12.566 : en:Chapter 07
00:52:04.913 : en:Chapter 08
00:58:05.982 : en:Chapter 09
01:03:44.153 : en:Chapter 10
01:15:28.941 : en:Chapter 11
01:19:02.571 : en:Chapter 12


Джерело: &


 Трекер:    Зареєстрований   

Завантажити / скачати фільм українською



відео для новачків



 Зареєстрований:   2020-06-16 12:37
 Розмір:   1.58 GB 
 Оцінка фільму:   8.6/10 (Голосів: 8)
   
bot 
робот


З нами з: 30.09.07
Востаннє: 26.05.05
Повідомлень: 24917

2020-06-16 10:02  
Тему перенесено з Фільми до форуму Анонси релізів


staf777

bot 
робот


З нами з: 30.09.07
Востаннє: 26.05.05
Повідомлень: 24917

2020-06-16 12:37  
Тему перенесено з Анонси релізів до форуму Фільми


staf777

+380954897458 
VIP


З нами з: 02.06.17
Востаннє: 02.07.20
Повідомлень: 880

2020-06-16 21:53  
Ого, справжній сімейний підряд! Режисер запросив у актори свого двоюрідного брата, колишню дружину іншого брата, актора з найкращого фільму своєї сестри, та сина актора з найкращого фільму батька.
Ваш часовий пояс: GMT + 2 Години

Нова тема   Відповісти