Замерзлі / Frozen (2010) 1080p 2xUkr/Eng | Sub Eng

Нові коментарі

Нова тема   Відповісти
Останній раз роздавалося Timm (2020-10-01)
Автор Повідомлення
Anonymous 







2020-06-16 03:51  
Замерзлі / Frozen (2010) 1080p 2xUkr/Eng | Sub Eng


Оригінальний постер:





Жанр: драма, трилер
Країна: США



Кінокомпанія: Anchor Bay Films
Режисер: Адам Грін
Актори: Емма Белл, Шон Ешмор, Кевін Зегерс, Ед Екерман, Райлі Вандербілт, Кейн Ходдер, Адам Джонсон, Кріс Йорк, Педер Мелхьоз, Уілл Берретт

Сюжет:
Не вдивляйтеся в безодню, інакше безодня почне вдивлятися у вас. Три молоді людини — сноубордисти і лижник навіть і не підозрювали, як це може бути в реальності, і яке жахливе страхіття чекає на них. Вони застрягають на підйомнику, і веселий вечір в засніжених зимових горах перетворюється на пекло. Страшний холод і обпалюючий вітер несуть загибель нещасним, що опинилися в пастці на величезній висоті. Час працює проти них — ніхто не прийде на допомогу, адже гірськолижний курорт закритий на декілька днів. Залишається одне — рятуватися самим. Але щоб врятуватися — потрібно перемогти жах цієї ночі! Весь жах...


Тривалість: 01:33:18
Якість: 1080p
Відео:
Кодек:
Розмір кадру: 1920 x 800
Бітрейт: 13.2 Mбіт/с

Аудіо #1:
Мова: українська
Переклад: багатоголосий закадровий[НТН]
Кодек: 2.0
Бітрейт: 192 Кбіт/с

Аудіо #2:
Мова: українська
Переклад: багатоголосий закадровий[НЛО]
Кодек: 2.0
Бітрейт: 192 Кбіт/с

Аудіо #3:
Мова: англійська
Переклад: Оригінал
Кодек: 5.1
Бітрейт: 1509 Кбіт/с

Субтитри:
Мова: англійська | Повні
Тип: програмні (м'які)
Формат: *.srt

Info


General
Unique ID : 39930855800010980499314170663505102279 (0x1E0A6730D7A3B3674A8AD0F25B7E05C7)
Format :
Format version : Version 4
File size : 9.86 GiB
Duration : 1 h 33 min
Overall bit rate : 15.1 Mb/s
Movie name : Frozen (2010) 1080p [2xUkrEng][SubEng] [Hurtom]
Encoded date : UTC 2020-06-16 00:14:24
Writing application : v46.0.0 ('No Deeper Escape') 64-bit
Writing library : libebml v1.3.10 + v1.5.2
Attachments : poster_ukr.jpg / poster_eng.jpg

Video
ID : 1
Format : AVC
Format/Info : Advanced Video Codec
Format profile : [email protected]
Format settings : CABAC / 5 Ref Frames
Format settings, CABAC : Yes
Format settings, Reference fra : 5 frames
Codec ID : V_MPEG4/ISO/AVC
Duration : 1 h 33 min
Bit rate : 13.2 Mb/s
Width : 1 920 pixels
Height : 800 pixels
Display aspect ratio : 2.40:1
Frame rate mode : Constant
Frame rate : 23.976 (24000/1001) FPS
Color space : YUV
Chroma subsampling : 4:2:0
Bit depth : 8 bits
Scan type : Progressive
Bits/(Pixel*Frame) : 0.359
Stream size : 8.62 GiB (87%)
Title : Frozen (2010) 1080p
Writing library : core 157 r2935 545de2f
Encoding settings : cabac=1 / ref=5 / deblock=1:-3:-3 / analyse=0x3:0x133 / me=umh / subme=10 / psy=1 / psy_rd=1.00:0.00 / mixed_ref=1 / me_range=24 / chroma_me=1 / trellis=2 / 8x8dct=1 / cqm=0 / deadzone=21,11 / fast_pskip=0 / chroma_qp_offset=-2 / threads=18 / lookahead_threads=3 / sliced_threads=0 / nr=0 / decimate=1 / interlaced=0 / bluray_compat=0 / constrained_intra=0 / bframes=8 / b_pyramid=2 / b_adapt=2 / b_bias=0 / direct=3 / weightb=1 / open_gop=0 / weightp=2 / keyint=240 / keyint_min=24 / scenecut=40 / intra_refresh=0 / rc_lookahead=60 / rc=crf / mbtree=1 / crf=14.0 / qcomp=0.60 / qpmin=0 / qpmax=69 / qpstep=4 / vbv_maxrate=62500 / vbv_bufsize=78125 / crf_max=0.0 / nal_hrd=none / filler=0 / ip_ratio=1.40 / aq=1:1.00
Language : English
Default : Yes
Forced : No
Color range : Limited
Color primaries : BT.709
Transfer characteristics : BT.709
Matrix coefficients : BT.709

Audio #1
ID : 2
Format : AC-3
Format/Info : Audio Coding 3
Commercial name : Dolby Digital
Codec ID : A_AC3
Duration : 1 h 33 min
Bit rate mode : Constant
Bit rate : 192 kb/s
Channel(s) : 2 channels
Channel layout : L R
Sampling rate : 48.0 kHz
Frame rate : 31.250 FPS (1536 SPF)
Compression mode : Lossy
Stream size : 128 MiB (1%)
Title : MVO [НТН] 2.0 @ 192 Кбіт/с
Language : Ukrainian
Service kind : Complete Main
Default : Yes
Forced : No

Audio #2
ID : 3
Format : AC-3
Format/Info : Audio Coding 3
Commercial name : Dolby Digital
Codec ID : A_AC3
Duration : 1 h 33 min
Bit rate mode : Constant
Bit rate : 192 kb/s
Channel(s) : 2 channels
Channel layout : L R
Sampling rate : 48.0 kHz
Frame rate : 31.250 FPS (1536 SPF)
Compression mode : Lossy
Stream size : 128 MiB (1%)
Title : MVO [НЛО] 2.0 @ 192 Кбіт/с
Language : Ukrainian
Service kind : Complete Main
Default : No
Forced : No

Audio #3
ID : 4
Format :
Format/Info : Digital Theater Systems
Codec ID : A_DTS
Duration : 1 h 33 min
Bit rate mode : Constant
Bit rate : 1 509 kb/s
Channel(s) : 6 channels
Channel layout : C L R Ls Rs LFE
Sampling rate : 48.0 kHz
Frame rate : 93.750 FPS (512 SPF)
Bit depth : 24 bits
Compression mode : Lossy
Stream size : 1 007 MiB (10%)
Title : [Оригінал] 5.1 @ 1509 Кбіт/с
Language : English
Default : No
Forced : No

Text
ID : 5
Format : UTF-8
Codec ID : S_TEXT/UTF8
Codec ID/Info : UTF-8 Plain Text
Duration : 1 h 27 min
Bit rate : 59 b/s
Count of elements : 1242
Stream size : 38.1 KiB (0%)
Title : Повні
Language : English
Default : No
Forced : No

Menu
00:00:00.000 : :00:00:00.000
00:12:14.234 : :00:12:13.899
00:19:57.196 : :00:19:57.112
00:31:07.866 : :00:31:07.740
00:38:15.794 : :00:38:15.376
00:51:03.561 : :00:51:03.268
00:54:51.789 : :00:54:51.663
00:58:44.021 : :00:58:43.978
01:05:30.927 : :01:05:30.593
01:18:50.226 : :01:18:49.975
01:25:43.138 : :01:25:42.846
01:28:32.307 : :01:28:31.848
Скріншоти









Джерело:


 Трекер:    Зареєстрований   

Завантажити / скачати фільм українською



відео для новачків



 Зареєстрований:   2020-06-16 03:51
 Розмір:   9.86 GB 
 Оцінка фільму:   8/10 (Голосів: 2)
   
Інші релізи
   Замерзлі / Frozen (2010) Remux 1080p 2xUkr/Eng | Sub Eng staf777  1 / 0   20.89 GB   2019-01-27 21:55 
   Замерзлі / Frozen (2010) AVC 2xUkr/Eng | Sub Eng staf777  3 / 0   2.18 GB   2018-11-26 11:19 
   Замерзлі / Frozen (2010) 2xUkr/Eng krigg070  2 / 0   1.71 GB   2016-01-05 21:47 
   Замерзлі / Frozen (2010) 720p Ukr/Eng | Sub Eng leroykendall  4 / 0   5.75 GB   2012-03-04 18:43 
Ваш часовий пояс: GMT + 2 Години

Нова тема   Відповісти