Завантаження (Сезон 1) / Upload (Season 1) (2020) 1080p

Нові коментарі

Нова тема   Відповісти
Автор Повідомлення
Anonymous 







2020-06-15 19:05  
Завантаження (Сезон 1) / Upload (Season 1) (2020) 1080p

Завантаження (Сезон 1) / Upload (Season 1) (2020) 1080p


Торрент-файл оновлено. Додано 3-10 серії. Повний сезон!

Жанр: детектив, комедія, фантастика
Країна: США


Кінокомпанія / телеканал: Amazon Prime Video
Режисер: Кейсі Еннінг, Грег Деніелс, Даїна Рейд
Актори/ролі озвучують: Роббі Амелл, Енді Алло, Кевін Біглі, Аллегра Роуз Едвардс, Оуен Деніелс, Андреа Розен, Джордан Джонсон-Хіндс, Джош Бандей

Сюжет:
В майбутньому свідомість вмираючої людини можна буде переселити в цифровий світ. Саме цим шляхом йде програміст Нейтан: після смерті він переноситься в віртуальний світ, де закохується в реальну дівчину Нору


Тривалість: 1 серія: 00:29 (цілком серій: 10)
Перелік серій
s01e01. Welcome to Upload
s01e02. Five Stars
s01e03. The Funeral
s01e04. The Sex Suit
s01e05. The Grey Market
s01e06. The Sleepover
s01e07. Bring Your Dad to Work Day
s01e08. Shopping Other Digital After-Lives
s01e09. Update Eve
s01e10. Freeyond
Якість: 1080p
Відео:
кодек:
розмір кадру: 1920 x 1080
бітрейт: ~ 8 000 kb/s

Аудіо:
мова: українська
переклад: двоголосий закадровий
кодек: 2.0
бітрейт: 128 kb/s
Info

General
Complete name : **********
Format : MPEG-4
Format profile : Base Media / Version 2
Codec ID : mp42 (mp42/isom)
File size : 1.65 GiB
Duration : 29mn 32s
Overall bit rate mode : Variable
Overall bit rate : 7 999 Kbps
Encoded date : UTC 2020-06-10 08:39:05
Tagged date : UTC 2020-06-10 08:39:05

Video
ID : 2
Format : AVC
Format/Info : Advanced Video Codec
Format profile : [email protected]
Format settings : CABAC / 2 Ref Frames
Format settings, CABAC : Yes
Format settings, ReFrames : 2 frames
Format settings, GOP : M=2, N=15
Codec ID : avc1
Codec ID/Info : Advanced Video Coding
Duration : 29mn 32s
Source duration : 29mn 32s
Bit rate mode : Variable
Bit rate : 7 867 Kbps
Maximum bit rate : 10 000 Kbps
Width : 1 920 pixels
Height : 1 080 pixels
Display aspect ratio : 16:9
Frame rate mode : Constant
Frame rate : 29.970 (30000/1001) fps
Color space : YUV
Chroma subsampling : 4:2:0
Bit depth : 8 bits
Scan type : Progressive
Bits/(Pixel*Frame) : 0.127
Stream size : 1.62 GiB (98%)
Source stream size : 1.62 GiB (98%)
Language : English
Encoded date : UTC 2020-06-10 08:39:05
Tagged date : UTC 2020-06-10 08:39:05
Codec configuration box : avcC

Audio
ID : 1
Format : LC
Format/Info : Advanced Audio Codec Low Complexity
Codec ID : mp4a-40-2
Duration : 29mn 32s
Bit rate mode : Constant
Bit rate : 128 Kbps
Channel(s) : 2 channels
Channel layout : L R
Sampling rate : 48.0 KHz
Frame rate : 46.875 fps (1024 SPF)
Compression mode : Lossy
Stream size : 27.0 MiB (2%)
Language : English
Encoded date : UTC 2020-06-10 08:39:05
Tagged date : UTC 2020-06-10 08:39:05
Скріншоти



Джерело звуку: любительський переклад


Авторський реліз (завантажувати можна без реєстрації)
 Трекер:    Зареєстрований   

Завантажити / скачати серіал українською



відео для новачків



 Зареєстрований:   2020-06-16 18:50
 Розмір:   16.68 GB 
 Оцінка серіалу:   9.7/10 (Голосів: 20)
 додавання e03-e10
   
sent2k20 
Новенький


З нами з: 27.04.20
Востаннє: 12.07.20
Повідомлень: 7

2020-06-15 22:37  
razdaem - справді? Happy
Зеленіший 
Новенький


З нами з: 20.02.11
Востаннє: 11.07.20
Повідомлень: 11

2020-06-15 22:53  
Що за швайнехунде замаскіроване під razdaem ?
Anonymous 







2020-06-16 19:00  
Прошу вибачення за часте оновлення файлу роздачі. Створювати роздачі не вмію

Додано 3-10 серії
повний сезон

11FrYkT 
Модератор відео


З нами з: 20.02.11
Востаннє: 12.07.20
Повідомлень: 6949

2020-06-23 15:06  
Anonymous написано:
Завантаження (Сезон 1 Серії 1-10) / Upload (Season 1 Episodes 1-10) (2020) 1080p

Вказати якість

Anonymous написано:

Аудіо:
мова: українська
переклад: двоголосий закадровий
бітрейт: 127 kb/s

вказати аудіокодек

додати медіаінфо та скріншоти у форматі пнг

Sergio_27 
Новенький


З нами з: 02.03.13
Востаннє: 09.07.20
Повідомлень: 2

2020-06-28 00:00  
де англійська доріжка((( мусив качати з рутрекера...
nakira 
Новенький


З нами з: 21.11.14
Востаннє: 08.07.20
Повідомлень: 2

2020-06-28 11:38  
Ех... Теж пішла на рутрекер за англійською доріжкою
NSaylon 
Новенький


З нами з: 19.06.11
Востаннє: 11.07.20
Повідомлень: 11

2020-06-28 20:12  
Подивився! Серіал один з кращих! Цікавість з'являється далеко не з 1-ї серії... По закінченні 1-го сезону спрагле бажання 2-го сезону!... фантастики більше аніж детективу, - комедії щось не помітив...
Vasyava 
VIP


З нами з: 26.04.10
Востаннє: 12.07.20
Повідомлень: 324

2020-06-29 00:01  
майже 17 Gb .....Пiсля перегляду,не зможу бути на роздачi,мало GB на компi
filmpoiuy 
Новенький


З нами з: 07.07.19
Востаннє: 02.07.20
Повідомлень: 3

2020-06-29 15:04  
крутяцький
bot 
робот


З нами з: 30.09.07
Востаннє: 26.05.05
Повідомлень: 25052

2020-07-12 19:29  
Тему перенесено з Телесеріали до форуму Серіали в HD


Dark Invader

Ваш часовий пояс: GMT + 2 Години

Нова тема   Відповісти