Вперед і вгору / Up (2009) UHD Remux 2160p 4K HDR H.265 Ukr/Eng | Sub Ukr/Eng

Нові коментарі

Нова тема   Відповісти
Автор Повідомлення
Argentum 
VIP


З нами з: 25.09.11
Востаннє: 27.02.21
Повідомлень: 285

2020-06-15 13:26  
Вперед і вгору / Up (2009) UHD Remux 2160p 4K HDR H.265 Ukr/Eng | Sub Ukr/Eng

Вперед і вгору / Up (2009) UHD Remux 2160p 4K HDR H.265 Ukr/Eng | Sub Ukr/Eng


Жанр: анімація, пригодницький, сімейний, комедія
Країна: США



Кінокомпанія: Pixar Animation Studios, Walt Disney Pictures
Режисер: Піт Доктер, Боб Пітерсон
Актори: Едвард Аснер, Крістофер Пламмер, Джордан Нагай, Боб Пітерсон, Делрой Ліндо, Джером Ранфт, Джон Ратценбергер та інші

Сюжет:
Головний герой фільму «Вперед і вгору» Карл Фредріксен ніколи не гнався за результатом. Все він робив від душі і з великою любов'ю. У цієї людини все життя було захоплюючим процесом. Але, через смерть дружини, він як би ненадовго забув про те, що таке його життя. І завдяки подорожі, завдяки зустрічі з Расселом і Дагом він знову згадує про це ...


Тривалість: 01:36:08
Якість: UHD Remux
Відео:
кодек: H.265 (HEVC)
розмір кадру: 3840 х 2160
бітрейт: 48.3 Mб/с
бітова глибина: 10 біт
кольоровий простір: BT.2020 (HDR)

Увага! Перед завантаженням переконайтесь, що ваш пристрій відтворення (та/або ПЗ) підтримує H.265 (HEVC)

Аудіо # 1:
мова: українська
переклад: професійний дубльований | студія LeDoyen
кодек: 5.1
бітрейт: 640 кб/с
Інформаця про дубляж
Фільм дубльовано на студії «Le Doyen» на замовлення «Disney Character Voices International» у 2009 році.

Режисер дубляжу — Анна Пащенко
Перекладач — Федір Сидорук
Мікс-студія — Shepperton International
Творчий консультант — Mariusz Arno Jaworowski

Ролі озвучували:
Карл Фредріксен - Віктор Черняков
Чарльз Мунц - Валерій Шептекіта
Рассел - Михайло Жогло
Даг - Юрій Ребрик
Бета - Юрій Коваленко
Гамма - Сергій Солопай
Альфа - Михайло Жонін
Робітник 1 - В'ячеслав Дудко
Ведучий - Олександр Завальський
Еллі мала - Єлизавета Пріма
Карл малий - Віталій Казнодій
Поліцейська - Наталя Поліщук
Робітник 2 - Дмитро Завадський
Санітра 1 - Петро Сова
Санітар 2 - Роман Чорний
Омега - Ігор Тихоміров

А також: Катерина Качан, Олександр Шевчук.
Аудіо # 2:
мова: англійська
переклад: оригінал
кодек: -HD 7.1
бітрейт: 4034 кб/с

Аудіо # 3:
мова: англійська
переклад: оригінал
кодек: 5.1
бітрейт: 640 кб/с

Субтитри 1-3: (форсовані, повні, коментарі режисера)
мова: українська
тип: програмні (м'які)
формат: *.srt

Субтитри 4:
мова: англійська
тип: програмні (м'які)
формат: *.srt
Info
General
Unique ID : 756899081326992817332790968434428210 (0x91C60182E4E2C5BE38A2BE72220932)
Complete name : Up.2009.Remux.2160p.Ukr.Eng.Hurtom.
Format :
Format version : Version 4
File size : 36.0 GiB
Duration : 1 h 36 min
Overall bit rate mode : Variable
Overall bit rate : 53.6 Mb/s
Movie name : Up (2009)
Encoded date : UTC 2020-06-14 16:45:06
Writing application : v47.0.0 ('Black Flag') 64-bit
Writing library : libebml v1.3.10 + v1.5.2
Attachments : Up_550.jpg

Video
ID : 1
Format : HEVC
Format/Info : High Efficiency Video Coding
Format profile : Main [email protected]@High
HDR format : SMPTE ST 2086, HDR10 compatible
Codec ID : V_MPEGH/ISO/HEVC
Duration : 1 h 36 min
Bit rate : 48.3 Mb/s
Width : 3 840 pixels
Height : 2 160 pixels
Display aspect ratio : 16:9
Frame rate mode : Constant
Frame rate : 23.976 (24000/1001) FPS
Color space : YUV
Chroma subsampling : 4:2:0 (Type 2)
Bit depth : 10 bits
Bits/(Pixel*Frame) : 0.243
Stream size : 32.4 GiB (90%)
Title : HEVC 3840*2160 HDR10 @ 48.3 Mb/s
Writing library : ATEME Titan File 3.9.0 (4.9.0.0)
Language : Multiple languages
Default : Yes
Forced : Yes
Color range : Limited
Color primaries : BT.2020
Transfer characteristics : PQ
Matrix coefficients : BT.2020 non-constant
Mastering display color pri : Display P3
Mastering display luminance : min: 0.0000 cd/m2, max: 1000 cd/m2

Audio #1
ID : 2
Format : AC-3
Format/Info : Audio Coding 3
Commercial name : Dolby Digital
Codec ID : A_AC3
Duration : 1 h 36 min
Bit rate mode : Constant
Bit rate : 640 kb/s
Channel(s) : 6 channels
Channel layout : L R C LFE Ls Rs
Sampling rate : 48.0 kHz
Frame rate : 31.250 FPS (1536 SPF)
Compression mode : Lossy
Delay relative to video : 667 ms
Stream size : 440 MiB (1%)
Title : AC-3 5.1 @ 640 kb/s
Language : Ukrainian
Service kind : Complete Main
Default : Yes
Forced : Yes

Audio #2
ID : 3
Format : ES XLL
Format/Info : Digital Theater Systems
Commercial name : -HD Master Audio
Codec ID : A_DTS
Duration : 1 h 36 min
Bit rate mode : Variable
Bit rate : 4 034 kb/s
Channel(s) : 6 channels
Channel(s)_Original : 7 channels
ChannelLayout_Original : C L R Ls Rs LFE Cs
Sampling rate : 48.0 kHz
Frame rate : 93.750 FPS (512 SPF)
Bit depth : 24 bits
Compression mode : Lossless
Delay relative to video : 667 ms
Stream size : 2.71 GiB (8%)
Title : -HD MA 7.1 @ 4 034 kb/s
Language : English
Default : No
Forced : No

Audio #3
ID : 4
Format : AC-3
Format/Info : Audio Coding 3
Commercial name : Dolby Digital
Codec ID : A_AC3
Duration : 1 h 36 min
Bit rate mode : Constant
Bit rate : 640 kb/s
Channel(s) : 6 channels
Channel layout : L R C LFE Ls Rs
Sampling rate : 48.0 kHz
Frame rate : 31.250 FPS (1536 SPF)
Compression mode : Lossy
Stream size : 440 MiB (1%)
Title : AC-3 5.1 @ 640 kb/s
Language : English
Service kind : Complete Main
Default : No
Forced : No

Text #1
ID : 5
Format : UTF-8
Codec ID : S_TEXT/UTF8
Codec ID/Info : UTF-8 Plain Text
Duration : 1 h 28 min
Bit rate : 0 b/s
Count of elements : 15
Stream size : 546 Bytes (0%)
Title : Forced
Language : Ukrainian
Default : Yes
Forced : Yes

Text #2
ID : 6
Format : UTF-8
Codec ID : S_TEXT/UTF8
Codec ID/Info : UTF-8 Plain Text
Duration : 1 h 28 min
Bit rate : 70 b/s
Count of elements : 863
Stream size : 45.6 KiB (0%)
Title : Full
Language : Ukrainian
Default : No
Forced : No

Text #3
ID : 7
Format : UTF-8
Codec ID : S_TEXT/UTF8
Codec ID/Info : UTF-8 Plain Text
Duration : 1 h 34 min
Bit rate : 199 b/s
Count of elements : 1861
Stream size : 138 KiB (0%)
Title : Commentary
Language : Ukrainian
Default : No
Forced : No

Text #4
ID : 8
Format : UTF-8
Codec ID : S_TEXT/UTF8
Codec ID/Info : UTF-8 Plain Text
Duration : 1 h 34 min
Bit rate : 44 b/s
Count of elements : 908
Stream size : 31.2 KiB (0%)
Title : Full
Language : English
Default : No
Forced : No

Menu
00:00:00.000 : en:Chapter 01
00:02:39.868 : en:Chapter 02
00:07:14.475 : en:Chapter 03
00:11:38.155 : en:Chapter 04
00:13:34.146 : en:Chapter 05
00:15:22.421 : en:Chapter 06
00:17:36.221 : en:Chapter 07
00:20:25.807 : en:Chapter 08
00:24:31.678 : en:Chapter 09
00:26:24.457 : en:Chapter 10
00:28:03.223 : en:Chapter 11
00:29:40.820 : en:Chapter 12
00:33:20.832 : en:Chapter 13
00:34:20.975 : en:Chapter 14
00:35:15.154 : en:Chapter 15
00:39:50.179 : en:Chapter 16
00:42:35.511 : en:Chapter 17
00:44:41.845 : en:Chapter 18
00:46:17.900 : en:Chapter 19
00:49:19.790 : en:Chapter 20
00:52:21.596 : en:Chapter 21
00:55:24.654 : en:Chapter 22
01:00:34.213 : en:Chapter 23
01:04:19.856 : en:Chapter 24
01:06:14.929 : en:Chapter 25
01:08:58.676 : en:Chapter 26
01:10:21.008 : en:Chapter 27
01:13:35.994 : en:Chapter 28
01:15:24.937 : en:Chapter 29
01:17:53.085 : en:Chapter 30
01:19:46.531 : en:Chapter 31
01:21:54.534 : en:Chapter 32
01:23:23.623 : en:Chapter 33
01:26:03.324 : en:Chapter 34
01:29:03.004 : en:Chapter 35
Скріншоти







Джерело:
Особиста оцінка: 8 - мені сподобалося


Золотий реліз (завантажене не впливає на рейтинг)
 Трекер:    Зареєстрований   

Завантажити / скачати мультфільм українською



відео для новачків



 Зареєстрований:   2020-06-15 14:03
 Розмір:   35.97 GB 
 Оцінка мультфільму:   9.8/10 (Голосів: 9)
   
Інші релізи
   Вперед і вгору / Up (2009) Blu-ray CEE 1080p Ukr/Eng/Multi | Sub Ukr/Eng/Multi (+Bonus Disc) vgfu34  0 / 2   53.8 GB   2020-12-16 22:26 
   Вперед і вгору / Up (2009) Remux 1080p Ukr/Eng | Sub Ukr/Eng antik_2008  6 / 1   17.65 GB   2020-06-14 16:20 
   Вперед і вгору / Up (2009) AVC Drool  34 / 0   1.62 GB   2013-07-07 00:35 
   Поцілуночок / Love at First Hiccup (2009) ТОЛЯН  3 / 0   1.29 GB   2013-03-27 20:25 
   Поцілуночок / Love at First Hiccup (2009) AVC Bohdan237  2 / 0   1.3 GB   2013-03-27 19:25 
   Вперед і вгору / Up (2009) 720p Ukr/Eng | Sub Ukr/Eng braveboy  34 / 0   4.36 GB   2013-03-24 16:38 
   Вперед і вгору / Up (2009) 1080p Ukr/Eng | Sub Ukr/Eng ratbol  24 / 0   7.82 GB   2012-02-13 18:05 
   Сенс життя / Growing Up (2009) Jmylia  4 / 0   254 MB   2010-08-26 09:47 
   Вперед і вгору / Up (2009) yaremko131  10 / 0   1.46 GB   2010-01-02 01:25 
   Вперед і вгору / Up (2009) Ukr/Eng Skiff  19 / 0   1.43 GB   2009-10-25 23:44 
bot 
робот


З нами з: 30.09.07
Востаннє: 26.05.05
Повідомлень: 27263

2020-06-15 14:02  
Тему перенесено з Анонси релізів до форуму Мультфільми в HD


Argentum

igor911 
Модератор відео


З нами з: 18.01.08
Востаннє: 27.02.21
Повідомлень: 15556

2020-06-15 23:13  
Треба вказати джерело (походження) української доріжки.
Argentum 
VIP


З нами з: 25.09.11
Востаннє: 27.02.21
Повідомлень: 285

2020-06-16 10:05  
igor911 написано:
Треба вказати джерело (походження) української доріжки.

Додав

Ваш часовий пояс: GMT + 2 Години

Нова тема   Відповісти