Містер Селфрідж / Mr Selfridge (Сезон 1-4) (2013-2016) 1080p Ukr/Eng

Нові коментарі

Нова тема   Відповісти
Автор Повідомлення
sergiyko.5 
Забанено
Забанено


З нами з: 25.02.16
Востаннє: 29.10.20
Повідомлень: 3650

2020-06-14 20:29  
Всі одноіменні релізи на трекері

Містер Селфрідж / Mr Selfridge (Сезон 1-4) (2013-2016) 1080p Ukr/Eng


Містер Селфрідж / Mr Selfridge (Сезон 1-4) (2013-2016) 1080p Ukr/Eng

Жанр: драма, історичний
Країна: Велика Британія
Кінокомпанія: ITV Studios
Режисер: Ентоні Бірн, Майкл Кейллор, Джон Джонс
Актори: Джеремі Півен, Сефора Венітес, Том Гудман-Хілл, Аманда Аббінгтон, Поппі Лі Фраєр, Кетерін Келлі, Уїлл Пейн, Роанна Кокрейн, Зої Таппер, Деніел Чаппл

Сюжет:
Середньостатистичний американський підприємець Селфрідж опиняється в самому центрі зосередження амбітного проекту. Сталося це в період його візиту в британську столицю на світанку 20-го століття. Під час поїздки Селфрідж переконується, що Англії бракує торгових центрів. У 1909 році підприємець відкриває перше подібне місце. В історії буде висвітлена значна частина його життя, де будуть пережиті як злети, так і падіння власної справи.




Тривалість: 1 серія: 47:20 (цілком серій: 10+10+10+10 з 40)
Якість:

Відео: кодек: розмір кадру: 1920x1080 бітрейт: 9200 кб/с
Аудіо # 1: мова: українська переклад: двоголосий закадровий кодек: 2.0 бітрейт: 192 кб/с
Озвучення: ТВ+
Аудіо # 2: (1 сезон) мова: українська переклад: багатоголосий закадровий кодек: 2.0 бітрейт: 192 кб/с
Озвучення: 1+1
Аудіо # 3: мова: англійська переклад: оригінал кодек: 5.1 бітрейт: 640 кб/с
Перелік серій
Сезон 1:
епізод 01
епізод 02
епізод 03
епізод 04
епізод 05
епізод 06
епізод 07
епізод 08
епізод 09
епізод 10

Сезон 2:
епізод 01
епізод 02
епізод 03
епізод 04
епізод 05
епізод 06
епізод 07
епізод 08
епізод 09
епізод 10

Сезон 3:
епізод 01
епізод 02
епізод 03
епізод 04
епізод 05
епізод 06
епізод 07
епізод 08
епізод 09
епізод 10

Сезон 4:
епізод 01
епізод 02
епізод 03
епізод 04
епізод 05
епізод 06
епізод 07
епізод 08
епізод 09
епізод 10
Про файл:
General
Unique ID : 265651805618189566408502871090052298303 (0xC7DAAD3DA82FE25EE0B11A75BC81763F)
Complete name : D:\Documents\Torrents\Mr.Selfridge 1080p \Mr.Selfridge S01 1080p \Mr.Selfridge.S01E08.1080p..
Format :
Format version : Version 4
File size : 3.40 GiB
Duration : 47 min 21 s
Overall bit rate : 10.3 Mb/s
Movie name : Mr.Selfridge S01 1080p by sergiyko
Encoded date : UTC 2020-06-14 17:50:01
Writing application : v47.0.0 ('Black Flag') 64-bit
Writing library : libebml v1.3.10 + v1.5.2

Video
ID : 1
Format : AVC
Format/Info : Advanced Video Codec
Format profile : [email protected]
Format settings : CABAC / 4 Ref Frames
Format settings, CABAC : Yes
Format settings, Reference : 4 frames
Codec ID : V_MPEG4/ISO/AVC
Duration : 47 min 21 s
Bit rate : 9 263 kb/s
Width : 1 920 pixels
Height : 1 080 pixels
Display aspect ratio : 16:9
Frame rate mode : Constant
Frame rate : 23.976 (24000/1001) FPS
Color space : YUV
Chroma subsampling : 4:2:0
Bit depth : 8 bits
Scan type : Progressive
Bits/(Pixel*Frame) : 0.186
Stream size : 3.06 GiB (90%)
Title : Mr.Selfridge.S01E08
Writing library : core 130 r2273 b3065e6
Encoding settings : cabac=1 / ref=4 / deblock=1:0:0 / analyse=0x3:0x113 / me=umh / subme=8 / psy=1 / psy_rd=1.00:0.00 / mixed_ref=1 / me_range=16 / chroma_me=1 / trellis=1 / 8x8dct=1 / cqm=0 / deadzone=21,11 / fast_pskip=1 / chroma_qp_offset=-2 / threads=12 / lookahead_threads=2 / sliced_threads=0 / nr=0 / decimate=1 / interlaced=0 / bluray_compat=0 / constrained_intra=0 / bframes=3 / b_pyramid=2 / b_adapt=2 / b_bias=0 / direct=3 / weightb=1 / open_gop=0 / weightp=2 / keyint=240 / keyint_min=24 / scenecut=40 / intra_refresh=0 / rc_lookahead=50 / rc=2pass / mbtree=1 / bitrate=9263 / ratetol=1.0 / qcomp=0.60 / qpmin=0 / qpmax=69 / qpstep=4 / cplxblur=20.0 / qblur=0.5 / ip_ratio=1.40 / aq=1:1.00
Language : English
Default : Yes
Forced : No

Audio #1
ID : 2
Format : AC-3
Format/Info : Audio Coding 3
Commercial name : Dolby Digital
Codec ID : A_AC3
Duration : 47 min 20 s
Bit rate mode : Constant
Bit rate : 192 kb/s
Channel(s) : 2 channels
Channel layout : L R
Sampling rate : 48.0 kHz
Frame rate : 31.250 FPS (1536 SPF)
Compression mode : Lossy
Stream size : 65.0 MiB (2%)
Title : MOV | ТВ+
Language : Ukrainian
Service kind : Complete Main
Default : Yes
Forced : Yes

Audio #2
ID : 3
Format : AC-3
Format/Info : Audio Coding 3
Commercial name : Dolby Digital
Codec ID : A_AC3
Duration : 47 min 20 s
Bit rate mode : Constant
Bit rate : 192 kb/s
Channel(s) : 2 channels
Channel layout : L R
Sampling rate : 48.0 kHz
Frame rate : 31.250 FPS (1536 SPF)
Compression mode : Lossy
Stream size : 65.0 MiB (2%)
Title : MOV | 1+1
Language : Ukrainian
Service kind : Complete Main
Default : No
Forced : No

Audio #3
ID : 4
Format : AC-3
Format/Info : Audio Coding 3
Commercial name : Dolby Digital
Codec ID : A_AC3
Duration : 47 min 20 s
Bit rate mode : Constant
Bit rate : 640 kb/s
Channel(s) : 2 channels
Channel layout : L R
Sampling rate : 48.0 kHz
Frame rate : 31.250 FPS (1536 SPF)
Compression mode : Lossy
Stream size : 217 MiB (6%)
Title : Original
Language : English
Service kind : Complete Main
Default : No
Forced : No

Menu
00:00:00.000 : en:00:00:00.000
00:09:37.577 : en:00:09:37.577
00:18:45.791 : en:00:18:45.791
00:25:43.417 : en:00:25:43.417
00:37:28.455 : en:00:37:28.455
Скріншоти:


Запис: Neytreenor, sergiyko
Зведення: sergiyko


Золотий реліз (завантажене не впливає на рейтинг)
 Трекер:    Зареєстрований   

Завантажити / скачати серіал українською



відео для новачків



 Зареєстрований:   2020-07-11 08:34
 Розмір:   144.82 GB 
 Оцінка серіалу:   10/10 (Голосів: 8)
   
sergiyko.5 
Забанено
Забанено


З нами з: 25.02.16
Востаннє: 29.10.20
Повідомлень: 3650

2020-06-19 20:20  
Торент оновлено. Додав 2 сезон.
sergiyko.5 
Забанено
Забанено


З нами з: 25.02.16
Востаннє: 29.10.20
Повідомлень: 3650

2020-06-23 21:14  
Торент оновлено. Додав 3 сезон.
007edward007 
Новенький


З нами з: 21.12.11
Востаннє: 30.11.20
Повідомлень: 4

2020-06-23 21:39  
Дуже дякую за 2 та 3 сезони. Цікавий серіал.

Будь ласка побудьте якомога довше на роздачі 3 сезону.

sergiyko.5 
Забанено
Забанено


З нами з: 25.02.16
Востаннє: 29.10.20
Повідомлень: 3650

2020-06-23 21:42  
Роздаю з опівдня до 2 ночі кожного дня.
007edward007 
Новенький


З нами з: 21.12.11
Востаннє: 30.11.20
Повідомлень: 4

2020-06-23 22:19  
Цитата:
Роздаю з опівдня до 2 ночі кожного дня.

На жаль, у мене 0 сідів та пірів зараз Sad (1)

sergiyko.5 
Забанено
Забанено


З нами з: 25.02.16
Востаннє: 29.10.20
Повідомлень: 3650

2020-06-23 22:23  
Йде перевірка торенту, 112Гб не швидко перевіряється. Зараз залишилось 30-50 хвилин.
007edward007 
Новенький


З нами з: 21.12.11
Востаннє: 30.11.20
Повідомлень: 4

2020-06-23 22:38  
Дякую, я того не знав
Ще можливо до 2:00 скачаю хоч 1 серію 3 сезону

Гарного вечора!

Andruxa85 
Новенький


З нами з: 21.01.20
Востаннє: 30.11.20
Повідомлень: 17

2020-07-01 11:46  
Крутий серіал. Але дивився давно вже його. Може кто підскаже щось схоже?
Scripto2 
Новенький


З нами з: 03.01.18
Востаннє: 02.07.20
Повідомлень: 2

2020-07-02 10:28  
поверніться на роздачу, будь ласка)
Spike2011 
Частий відвідувач


З нами з: 08.08.11
Востаннє: 30.11.20
Повідомлень: 26

2020-07-10 21:22  
Скажіть будь ласка, чи плануєте додати 4й сезон?
sergiyko.5 
Забанено
Забанено


З нами з: 25.02.16
Востаннє: 29.10.20
Повідомлень: 3650

2020-07-11 08:35  
Торент оновлено. Додав 4 сезон. Роздача після опівдня. Приємного перегляду!
Cartwright 
VIP


З нами з: 23.03.13
Востаннє: 29.11.20
Повідомлень: 393

2020-08-29 12:19  
Непоганий серіал. Доволі цікавий. На жаль четвертий сезон виявився найслабшим. Після третього сезону робили наробок на продовження сюжету в 4 сезоні, проте чомусь на це забили та перемотали події серіалу. 4 сезон трохи втратив дух та ентузіазм попередніх сезонів. До того ж забагато смертей в 4 сезоні зробили, було неприємно спостерігати, як помирають герої заради підвищення драматизму в серіалі. Та і любовна лінія Селфріджа неначе з неба звалилася. Загалом цей сезон не порівняти з попередніми. Більша частина серій виявилася ні про що.

Мій рейтинг сезонів: 2 сезон, 1 сезон, 3 сезон, 4 сезон.

P.S. Було кумедно виявити, що на момент 4 сезону Селфріджу було 70 років. Джеремі Півен ані зовнішнім виглядом, ані акторською грою не відповідає цьому віку, та і грим, який з'явився в 4 сезоні це не зумів змінити. А ще смішніше, що в 3 сезоні Селфріджу було 60 років, а там він виглядає зовсім молодо. Я вже мовчу про вік Мей, яка в свої 60-70 в 4 сезоні непогано так розважалася з чоловіками. Видно, що на вік героїв сценаристи просто забили.
P.P.S. До 3 сезону вигаданий персонаж Колеано був ледь не головним героєм в серіалі, а в 4 сезоні його жорстоко злили тільки щоб підвищити напругу в серіалі. Мабуть найбільш суперечливий персонаж. Використали його по повній виключно для підвищення драматизму. А на самого персонажа забили.
P.P.P.S. Найбільше запитань викликало в серіалі зникнення Агнес і Генрі. Їх просто раптово прибрали і забули про їхнє існування, неначе це якість третьорядні герої, хоча в перших 2 сезонах саме вони з Колеано були головними героями, а Селфрідж бігав на задньому плані.
P.P.P.P.S. Якщо задуматися, то найбільш трагічна сюжетна лінія була в Містера Грова. Жахливо таке спостерігати.

Ваш часовий пояс: GMT + 2 Години

Нова тема   Відповісти