Вперед і вгору / Up (2009) Remux 1080p Ukr/Eng | Sub Ukr/Eng

Нові коментарі

Нова тема   Відповісти
Автор Повідомлення
Anonymous 







2020-06-14 16:20  
Вперед і вгору / Up (2009) Remux 1080p Ukr/Eng | Sub Ukr/Eng

Вперед і вгору / Up (2009) Remux 1080p Ukr/Eng | Sub Ukr/Eng


Жанр: фентезі, драма, романтичний, мелодрама
Країна: США



Кіностудія / кінокомпанія: Walt Disney Pictures, Pixar Animation Studios
Режисери та автори сценарію: Піт Доктер, Боб Пітерсон
Актори: Едвард Аснер, Крістофер Пламмер, Джордан Наґаї, Боб Петерсон, Делрой Ліндо та інші
Вікові обмеження: 0+

Факти
• Бюджет стрічки - 175 млн. дол.
• "Вперед і вгору" назбирав 723 млн. дол. касових зборів по всьому світу та став другим найбільш комерційно успішним проектом Піксар після мультфільму "У пошуках Немо".
• На сайті Rotten Tometoes відгуки на фільм "Вперед і вгору" були найкращими за 2009 рік.
• В одній з серій мультсеріалу "Сімпсони" (Coming to Homerica) було згадано мультфільм "Вперед і вгору": коли Карл і Ленні летять на кріслах із повітряними кульками, на задньому плані пролітає будиночок Карла Фредріксона.
Критика
• На сайті кінокритики Rotten Tomatoes стрічка отримала оцінку в 98% 252-ма голосами (247 схвальних та 5 несхвальних).
• На сайті Metacritic мультфільм отримав оцінку 88.
• Кінокритик Роджер Іберт нагородив "Вгору" чотирма зірками з чотирьох.
Нагороди
Оскар
Найкращий анімаційний фільм
Найкраща музика до фільму


Британська академія телебачення і кіномистецтва
Найкращий анімований повнометражний фільмПіт Доктер, Боб Пітерсон
Найкраща музикаМайкл Джаккіно (композитор)
Найкращий звукМайкл Сілверс, Том Маєрс, Майкл Семанік
Найкращий оригінальний сценарійПіт Доктер, Боб Пітерсон (сценаристи)


Broadcast Film Critics Association
Найкращий фільмДжонас Рівера (продюсер)НОМІНОВАНО
Найкращий анімаційний повнометражний фільмПіт Доктер, Боб Пітерсон (режисери)
Найкраща музика Майкл Джаккіно (композитор)
• Найкращий оригінальний сценарійБоб Пітерсон, Піт ДоктерНОМІНОВАНО


Золотий глобус
Найкращий анімаційний повнометражний фільмПіт Доктер, Боб Пітерсон (режисери)
Найкраща музикаМайкл Джаккіно (композитор)


Греммі
• Найкращий саундтрек повнометражного фільмуМайкл Джаккіно (композитор)
• Найкраща інструментальна композиціяМайкл Джаккіно (композитор)
• Найкраще інструментальне аранжируванняМайкл Джаккіно (композитор)НОМІНОВАНО


Satellite Award
Найкращий анімаційний фільмПіт Доктер, Боб Пітерсон (режисери)НОМІНОВАНО
Найкращий оригінальний сценарійБоб Пітерсон, Піт ДоктерНОМІНОВАНО



Сюжет:
78-річний Карл Фредріксен вважає, що життя обходить його стороною. Щоб стримати обіцянку, дану своїй покійній дружині, він вирішує здійснити свою мрію, подорож до Південної Америки, прив'язавши тисячі повітряних кульок до свого будинку він летить туди на ньому. Та скоро мандрівник виявляє, що він ненароком прихопив з собою украй балакучого і непоправно життєрадісного 8-річного бойскаута на ім'я Рассел. Разом ця невгамовна парочка має пройти важкі випробування щоб здійснити мрію Карла та заробити заповітну медаль допомагаючи пенсіонеру, якої Раселу не вистачає, щоб стати старшим дослідником природи.


Тривалість: 01:36:38
Якість: Blu-Ray Remux 1080p

Відео:
кодек:
розмір кадру: 1920 х 1080
бітрейт: 24.2 мб/с

Аудіо # 1:
мова: українська
переклад: професійний дубльований | Blu-ray
кодек: 5.1
бітрейт: 640 кб/с

Аудіо # 2:
мова: англійська
переклад: оригінал
кодек: -ES 5.1
бітрейт: 1536 кб/с

Аудіо # 3:
мова: англійська
переклад: коментарі режисерів
кодек: 2.0
бітрейт: 192 кб/с

Субтитри 1-2:
мова: українська (повні), українська (надписи на інше)
тип: програмні (м'які)
формат: *.srt

Субтитри # 3:
мови: англійська (повні)
тип: програмні (м'які)
формат: *.srt
Скріншоти




Info
Код:

General
Complete name                            : Up (2009) Blu-Ray Remux 1080p [UKR, ENG] [Video_Hurtom].
Format                                   :
Format version                           : Version 4
File size                                : 17.7 GiB
Duration                                 : 1 h 36 min
Overall bit rate                         : 26.1 Mb/s
Movie name                               : Вперед і вгору / Up (2009)
Encoded date                             : UTC 2020-06-14 13:54:11
Writing application                      : v30.1.0 ('Forever And More') 64-bit
Writing library                          : libebml v1.3.6 + v1.4.9
Cover                                    : Yes
Attachments                              : cover.jpg

Video
ID                                       : 1
Format                                   : AVC
Format/Info                              : Advanced Video Codec
Format profile                           : [email protected]
Format settings                          : CABAC / 4 Ref Frames
Format settings, CABAC                   : Yes
Format settings, RefFrames               : 4 frames
Format settings, GOP                     : M=3, N=12
Codec ID                                 : V_MPEG4/ISO/AVC
Duration                                 : 1 h 36 min
Bit rate mode                            : Constant
Bit rate                                 : 23.8 Mb/s
Nominal bit rate                         : 34.0 Mb/s
Width                                    : 1 920 pixels
Height                                   : 1 080 pixels
Display aspect ratio                     : 16:9
Frame rate mode                          : Constant
Frame rate                               : 23.976 (24000/1001) FPS
Color space                              : YUV
Chroma subsampling                       : 4:2:0
Bit depth                                : 8 bits
Scan type                                : Progressive
Bits/(Pixel*Frame)                       : 0.479
Stream size                              : 16.1 GiB (91%)
Default                                  : Yes
Forced                                   : No
Color range                              : Limited
Color primaries                          : BT.709
Transfer characteristics                 : BT.709
Matrix coefficients                      : BT.709

Audio #1
ID                                       : 2
Format                                   : AC-3
Format/Info                              : Audio Coding 3
Commercial name                          : Dolby Digital
Codec ID                                 : A_AC3
Duration                                 : 1 h 36 min
Bit rate mode                            : Constant
Bit rate                                 : 640 kb/s
Channel(s)                               : 6 channels
Channel layout                           : L R C LFE Ls Rs
Sampling rate                            : 48.0 kHz
Frame rate                               : 31.250 FPS (1536 SPF)
Bit depth                                : 16 bits
Compression mode                         : Lossy
Stream size                              : 440 MiB (2%)
Title                                    : , 6 ch, 640 Кбт/с
Language                                 : Ukrainian
Service kind                             : Complete Main
Default                                  : Yes
Forced                                   : No

Audio #2
ID                                       : 3
Format                                   : ES
Format/Info                              : Digital Theater Systems
Commercial name                          : -ES Matrix
Codec ID                                 : A_DTS
Duration                                 : 1 h 36 min
Bit rate mode                            : Constant
Bit rate                                 : 1 509 kb/s
Channel(s)                               : 6 channels
Channel(s)_Original                      : 7 channels
Channel layout                           : C L R Ls Rs Cb LFE
Sampling rate                            : 48.0 kHz
Frame rate                               : 93.750 FPS (512 SPF)
Bit depth                                : 24 bits
Compression mode                         : Lossy
Stream size                              : 1.02 GiB (6%)
Title                                    : -ES, 6 ch, 1536 Кбт/с
Language                                 : English
Default                                  : No
Forced                                   : No

Audio #3
ID                                       : 4
Format                                   : AC-3
Format/Info                              : Audio Coding 3
Commercial name                          : Dolby Digital
Codec ID                                 : A_AC3
Duration                                 : 1 h 36 min
Bit rate mode                            : Constant
Bit rate                                 : 192 kb/s
Channel(s)                               : 2 channels
Channel layout                           : L R
Sampling rate                            : 48.0 kHz
Frame rate                               : 31.250 FPS (1536 SPF)
Bit depth                                : 16 bits
Compression mode                         : Lossy
Stream size                              : 132 MiB (1%)
Title                                    : коментарі режисерів
Language                                 : English
Service kind                             : Complete Main
Default                                  : No
Forced                                   : No

Text #1
ID                                       : 5
Format                                   : UTF-8
Codec ID                                 : S_TEXT/UTF8
Codec ID/Info                            : UTF-8 Plain Text
Duration                                 : 1 h 35 min
Bit rate                                 : 0 b/s
Count of elements                        : 15
Stream size                              : 521 Bytes (0%)
Title                                    : Forced
Language                                 : Ukrainian
Default                                  : Yes
Forced                                   : No

Text #2
ID                                       : 6
Format                                   : UTF-8
Codec ID                                 : S_TEXT/UTF8
Codec ID/Info                            : UTF-8 Plain Text
Duration                                 : 1 h 35 min
Bit rate                                 : 63 b/s
Count of elements                        : 855
Stream size                              : 44.4 KiB (0%)
Title                                    : Full
Language                                 : Ukrainian
Default                                  : No
Forced                                   : No

Text #3
ID                                       : 7
Format                                   : UTF-8
Codec ID                                 : S_TEXT/UTF8
Codec ID/Info                            : UTF-8 Plain Text
Duration                                 : 1 h 34 min
Bit rate                                 : 42 b/s
Count of elements                        : 884
Stream size                              : 29.5 KiB (0%)
Title                                    : Full
Language                                 : English
Default                                  : No
Forced                                   : No
Джерело:
Особиста оцінка: 9 - давно не бачив настільки якісне мульт


Золотий реліз (завантажене не впливає на рейтинг)
 Трекер:    Зареєстрований   

Завантажити / скачати мультфільм українською



відео для новачків



 Зареєстрований:   2020-06-14 16:20
 Розмір:   17.65 GB 
 Оцінка мультфільму:   9.8/10 (Голосів: 12)
   
Інші релізи
   Вперед і вгору / Up (2009) Blu-ray CEE 1080p Ukr/Eng/Multi | Sub Ukr/Eng/Multi (+Bonus Disc) vgfu34  0 / 0   53.8 GB   2020-12-16 22:26 
   Вперед і вгору / Up (2009) UHD Remux 2160p 4K HDR H.265 Ukr/Eng | Sub Ukr/Eng Argentum  12 / 0   35.97 GB   2020-06-15 14:03 
   Вперед і вгору / Up (2009) AVC Drool  19 / 0   1.62 GB   2013-07-07 00:35 
   Поцілуночок / Love at First Hiccup (2009) ТОЛЯН  2 / 0   1.29 GB   2013-03-27 20:25 
   Поцілуночок / Love at First Hiccup (2009) AVC Bohdan237  1 / 0   1.3 GB   2013-03-27 19:25 
   Вперед і вгору / Up (2009) 720p Ukr/Eng | Sub Ukr/Eng braveboy  17 / 0   4.36 GB   2013-03-24 16:38 
   Вперед і вгору / Up (2009) 1080p Ukr/Eng | Sub Ukr/Eng ratbol  22 / 0   7.82 GB   2012-02-13 18:05 
   Сенс життя / Growing Up (2009) Jmylia  3 / 0   254 MB   2010-08-26 09:47 
   Вперед і вгору / Up (2009) yaremko131  3 / 0   1.46 GB   2010-01-02 01:25 
   Вперед і вгору / Up (2009) Ukr/Eng Skiff  5 / 0   1.43 GB   2009-10-25 23:44 
Ваш часовий пояс: GMT + 2 Години

Нова тема   Відповісти