Велика мандрівка / The Big Trip (2019) 720p Ukr/Eng

Нові коментарі

Нова тема   Відповісти
Автор Повідомлення
sergiyko.5 
Забанено
Забанено


З нами з: 25.02.16
Востаннє: 29.10.20
Повідомлень: 3650

2020-06-14 16:17  
Велика мандрівка / The Big Trip (2019) 720p Ukr/Eng

Велика мандрівка / The Big Trip (2019) 720p Ukr/Eng

Жанр: анімація, пригоди, комедія
Країна: росія, США
Кінокомпанія: Licensing Brands
Режисер: Наталія Нілова, Василь Рівненський

Сюжет:
Одного разу нетямущий Лелека — співробітник центру з доставки дітлахів переплутав адресу родини Панд і помилково доставив малюка Панду ведмедю Мік-Міку. Ведмідь збирається виправити це непорозуміння й вирішує доставити малюка його законним батькам до Китаю. Їхня подорож обіцяє бути непростою й довгою, а на шляху вони зустрінуться із Пеліканом, Вовком і Тигром.




Тривалість: 01:24:21
Якість:

Відео: кодек: Н.264 розмір кадру: 1280 x 536 бітрейт: 3000 кб/с
Аудіо: мова: українська переклад: професійний дубльований кодек: 2.0 бітрейт: 192 кб/с
Озвучення: ТЕТ
Аудіо: мова: англійська переклад: оригінал кодек: 5.1 бітрейт: 640 кб/с
Про файл:
General
Unique ID : 192254489307900835951087012376766572525 (0x90A2DE277DE2EC51C7C9F3E82497E7ED)
Complete name : D:\Documents\Torrents\MULTSER_2\The.Big.Trip.2019.720p..sergiyko.
Format :
Format version : Version 4
File size : 2.25 GiB
Duration : 1 h 24 min
Overall bit rate : 3 817 kb/s
Movie name : The Big Trip 2019 rip by sergiyko
Encoded date : UTC 2020-06-14 14:10:19
Writing application : v47.0.0 ('Black Flag') 64-bit
Writing library : libebml v1.3.10 + v1.5.2
Cover : Yes
Attachments : cover.jpeg

Video
ID : 1
Format : AVC
Format/Info : Advanced Video Codec
Format profile : [email protected]
Format settings : CABAC / 6 Ref Frames
Format settings, CABAC : Yes
Format settings, Reference : 6 frames
Codec ID : V_MPEG4/ISO/AVC
Duration : 1 h 24 min
Bit rate : 2 982 kb/s
Width : 1 280 pixels
Height : 536 pixels
Display aspect ratio : 2.40:1
Frame rate mode : Constant
Frame rate : 24.000 FPS
Color space : YUV
Chroma subsampling : 4:2:0
Bit depth : 8 bits
Scan type : Progressive
Bits/(Pixel*Frame) : 0.181
Stream size : 1.76 GiB (78%)
Title : The Big Trip 2019
Writing library : core 159
Encoding settings : cabac=1 / ref=6 / deblock=1:0:0 / analyse=0x3:0x133 / me=umh / subme=10 / psy=1 / psy_rd=1.00:0.00 / mixed_ref=1 / me_range=24 / chroma_me=1 / trellis=2 / 8x8dct=1 / cqm=0 / deadzone=21,11 / fast_pskip=1 / chroma_qp_offset=-2 / threads=17 / lookahead_threads=2 / sliced_threads=0 / nr=0 / decimate=1 / interlaced=0 / bluray_compat=0 / constrained_intra=0 / bframes=8 / b_pyramid=2 / b_adapt=2 / b_bias=0 / direct=3 / weightb=1 / open_gop=0 / weightp=2 / keyint=250 / keyint_min=24 / scenecut=40 / intra_refresh=0 / rc_lookahead=60 / rc=crf / mbtree=1 / crf=18.0 / qcomp=0.60 / qpmin=0 / qpmax=69 / qpstep=4 / ip_ratio=1.40 / aq=1:1.00
Language : English
Default : Yes
Forced : No

Audio #1
ID : 2
Format : AC-3
Format/Info : Audio Coding 3
Commercial name : Dolby Digital
Codec ID : A_AC3
Duration : 1 h 24 min
Bit rate mode : Constant
Bit rate : 192 kb/s
Channel(s) : 2 channels
Channel layout : L R
Sampling rate : 48.0 kHz
Frame rate : 31.250 FPS (1536 SPF)
Compression mode : Lossy
Stream size : 116 MiB (5%)
Title : DUB | ТЕТ
Language : Ukrainian
Service kind : Complete Main
Default : Yes
Forced : Yes

Audio #2
ID : 3
Format : AC-3
Format/Info : Audio Coding 3
Commercial name : Dolby Digital
Codec ID : A_AC3
Duration : 1 h 24 min
Bit rate mode : Constant
Bit rate : 640 kb/s
Channel(s) : 6 channels
Channel layout : L R C LFE Ls Rs
Sampling rate : 48.0 kHz
Frame rate : 31.250 FPS (1536 SPF)
Compression mode : Lossy
Stream size : 386 MiB (17%)
Title : Original
Language : English
Service kind : Complete Main
Default : No
Forced : No
Скріншоти:


Запис/зведення: sergiyko


 Трекер:    Зареєстрований   

Завантажити / скачати мультфільм українською



відео для новачків



 Зареєстрований:   2020-06-14 16:17
 Розмір:   2.25 GB 
 Оцінка мультфільму:   7/10 (Голосів: 9)
   
Інші релізи
   Велика мандрівка / The Big Trip (2019) 1080p Ukr/Eng sergiyko.5  9 / 0   6.97 GB   2020-06-14 13:39 
   Велика мандрівка / The Big Trip (2019) AVC Ukr/Eng sergiyko.5  19 / 0   1.39 GB   2020-06-14 13:29 
Ваш часовий пояс: GMT + 2 Години

Нова тема   Відповісти