Велика мандрівка / The Big Trip (2019) 1080p Ukr/Eng

Нові коментарі

Нова тема   Відповісти
Автор Повідомлення
sergiyko.5 
Забанено
Забанено


З нами з: 25.02.16
Востаннє: 29.10.20
Повідомлень: 3650

2020-06-14 13:39  
Велика мандрівка / The Big Trip (2019) 1080p Ukr/Eng

Велика мандрівка / The Big Trip (2019) 1080p Ukr/Eng

Жанр: анімація, пригоди, комедія
Країна: росія, США
Кінокомпанія: Licensing Brands
Режисер: Наталія Нілова, Василь Рівненський

Сюжет:
Одного разу нетямущий Лелека — співробітник центру з доставки дітлахів переплутав адресу родини Панд і помилково доставив малюка Панду ведмедю Мік-Міку. Ведмідь збирається виправити це непорозуміння й вирішує доставити малюка його законним батькам до Китаю. Їхня подорож обіцяє бути непростою й довгою, а на шляху вони зустрінуться із Пеліканом, Вовком і Тигром.




Тривалість: 01:24:21
Якість:

Відео: кодек: Н.264 розмір кадру: 1920 x 800 бітрейт: 9500 кб/с
Аудіо: мова: українська переклад: професійний дубльований кодек: 2.0 бітрейт: 192 кб/с
Озвучення: ТЕТ
Аудіо: мова: англійська переклад: оригінал кодек: 5.1 бітрейт: 1509 кб/с
Про файл:
General
Unique ID : 292030127773827814591592777438892050857 (0xDBB2F4EF28D5D4F19BD5A80B57A2C9A9)
Complete name : D:\Documents\Torrents\MULTSER_2\The.Big.Trip.2019.1080p..sergiyko.
Format :
Format version : Version 4
File size : 6.97 GiB
Duration : 1 h 24 min
Overall bit rate : 11.8 Mb/s
Movie name : The Big Trip 2019 rip by sergiyko
Encoded date : UTC 2020-06-14 11:29:49
Writing application : v47.0.0 ('Black Flag') 64-bit
Writing library : libebml v1.3.10 + v1.5.2
Cover : Yes
Attachments : cover.jpeg

Video
ID : 1
Format : AVC
Format/Info : Advanced Video Codec
Format profile : [email protected]
Format settings : CABAC / 4 Ref Frames
Format settings, CABAC : Yes
Format settings, Reference : 4 frames
Codec ID : V_MPEG4/ISO/AVC
Duration : 1 h 24 min
Bit rate : 10.1 Mb/s
Width : 1 920 pixels
Height : 800 pixels
Display aspect ratio : 2.40:1
Frame rate mode : Constant
Frame rate : 24.000 FPS
Color space : YUV
Chroma subsampling : 4:2:0
Bit depth : 8 bits
Scan type : Progressive
Bits/(Pixel*Frame) : 0.275
Stream size : 5.97 GiB (86%)
Title : The Big Trip 2019
Writing library : core 146 r2538 121396c
Encoding settings : cabac=1 / ref=3 / deblock=1:0:0 / analyse=0x3:0x113 / me=hex / subme=7 / psy=1 / psy_rd=1.00:0.00 / mixed_ref=1 / me_range=16 / chroma_me=1 / trellis=1 / 8x8dct=1 / cqm=0 / deadzone=21,11 / fast_pskip=1 / chroma_qp_offset=-2 / threads=48 / lookahead_threads=6 / sliced_threads=0 / nr=0 / decimate=1 / interlaced=0 / bluray_compat=0 / constrained_intra=0 / bframes=3 / b_pyramid=2 / b_adapt=1 / b_bias=0 / direct=1 / weightb=1 / open_gop=0 / weightp=2 / keyint=240 / keyint_min=24 / scenecut=40 / intra_refresh=0 / rc_lookahead=40 / rc=2pass / mbtree=1 / bitrate=10134 / ratetol=1.0 / qcomp=0.60 / qpmin=0 / qpmax=69 / qpstep=4 / cplxblur=20.0 / qblur=0.5 / ip_ratio=1.40 / aq=1:1.00
Language : English
Default : Yes
Forced : No

Audio #1
ID : 2
Format : AC-3
Format/Info : Audio Coding 3
Commercial name : Dolby Digital
Codec ID : A_AC3
Duration : 1 h 24 min
Bit rate mode : Constant
Bit rate : 192 kb/s
Channel(s) : 2 channels
Channel layout : L R
Sampling rate : 48.0 kHz
Frame rate : 31.250 FPS (1536 SPF)
Compression mode : Lossy
Stream size : 116 MiB (2%)
Title : DUB | ТЕТ
Language : Ukrainian
Service kind : Complete Main
Default : Yes
Forced : Yes

Audio #2
ID : 3
Format :
Format/Info : Digital Theater Systems
Codec ID : A_DTS
Duration : 1 h 24 min
Bit rate mode : Constant
Bit rate : 1 509 kb/s
Channel(s) : 6 channels
Channel layout : C L R Ls Rs LFE
Sampling rate : 48.0 kHz
Frame rate : 93.750 FPS (512 SPF)
Bit depth : 24 bits
Compression mode : Lossy
Stream size : 910 MiB (13%)
Title : Original
Language : English
Default : No
Forced : No
Скріншоти:


Запис/зведення: sergiyko


 Трекер:    Зареєстрований   

Завантажити / скачати мультфільм українською



відео для новачків



 Зареєстрований:   2020-06-14 13:39
 Розмір:   6.97 GB 
 Оцінка мультфільму:   10/10 (Голосів: 4)
   
Інші релізи
   Велика мандрівка / The Big Trip (2019) 720p Ukr/Eng sergiyko.5  7 / 0   2.25 GB   2020-06-14 16:17 
   Велика мандрівка / The Big Trip (2019) AVC Ukr/Eng sergiyko.5  20 / 0   1.39 GB   2020-06-14 13:29 
Ваш часовий пояс: GMT + 2 Години

Нова тема   Відповісти