Велика мандрівка / The Big Trip (2019) AVC Ukr/Eng

Нові коментарі

Нова тема   Відповісти
Автор Повідомлення
sergiyko.5 
VIP


З нами з: 25.02.16
Востаннє: 24.10.20
Повідомлень: 3615

2020-06-14 14:29  
Велика мандрівка / The Big Trip (2019) AVC Ukr/Eng

Велика мандрівка / The Big Trip (2019) AVC Ukr/Eng

Жанр: анімація, пригоди, комедія
Країна: росія, США
Кінокомпанія: Licensing Brands
Режисер: Наталія Нілова, Василь Рівненський

Сюжет:
Одного разу нетямущий Лелека — співробітник центру з доставки дітлахів переплутав адресу родини Панд і помилково доставив малюка Панду ведмедю Мік-Міку. Ведмідь збирається виправити це непорозуміння й вирішує доставити малюка його законним батькам до Китаю. Їхня подорож обіцяє бути непростою й довгою, а на шляху вони зустрінуться із Пеліканом, Вовком і Тигром.




Тривалість: 01:24:21
Якість:

Відео: кодек: Н.264 розмір кадру: 1024 x 424 бітрейт: 1500 кб/с
Аудіо: мова: українська переклад: професійний дубльований кодек: 2.0 бітрейт: 192 кб/с
Озвучення: ТЕТ
Аудіо: мова: англійська переклад: оригінал кодек: 5.1 бітрейт: 640 кб/с
Про файл:
General
Unique ID : 60899253389576228349231430046675659784 (0x2DD0C5027FBBB62435991B223C486C08)
Complete name : D:\Documents\Torrents\MULTSER_2\The.Big.Trip.2019..sergiyko.
Format :
Format version : Version 4
File size : 1.39 GiB
Duration : 1 h 24 min
Overall bit rate : 2 351 kb/s
Movie name : The Big Trip 2019 rip by sergiyko
Encoded date : UTC 2020-06-14 11:25:05
Writing application : v47.0.0 ('Black Flag') 64-bit
Writing library : libebml v1.3.10 + v1.5.2
Cover : Yes
Attachments : cover.jpeg

Video
ID : 1
Format : AVC
Format/Info : Advanced Video Codec
Format profile : [email protected]
Format settings : CABAC / 10 Ref Frames
Format settings, CABAC : Yes
Format settings, Reference : 10 frames
Codec ID : V_MPEG4/ISO/AVC
Duration : 1 h 24 min
Bit rate : 1 516 kb/s
Width : 1 024 pixels
Height : 424 pixels
Display aspect ratio : 2.40:1
Frame rate mode : Constant
Frame rate : 24.000 FPS
Color space : YUV
Chroma subsampling : 4:2:0
Bit depth : 8 bits
Scan type : Progressive
Bits/(Pixel*Frame) : 0.146
Stream size : 915 MiB (65%)
Title : The Big Trip 2019
Writing library : core 159
Encoding settings : cabac=1 / ref=10 / deblock=1:0:0 / analyse=0x3:0x133 / me=umh / subme=10 / psy=1 / psy_rd=1.00:0.00 / mixed_ref=1 / me_range=24 / chroma_me=1 / trellis=2 / 8x8dct=1 / cqm=0 / deadzone=21,11 / fast_pskip=1 / chroma_qp_offset=-2 / threads=13 / lookahead_threads=2 / sliced_threads=0 / nr=0 / decimate=1 / interlaced=0 / bluray_compat=0 / constrained_intra=0 / bframes=8 / b_pyramid=2 / b_adapt=2 / b_bias=0 / direct=3 / weightb=1 / open_gop=0 / weightp=2 / keyint=250 / keyint_min=24 / scenecut=40 / intra_refresh=0 / rc_lookahead=60 / rc=crf / mbtree=1 / crf=20.0 / qcomp=0.60 / qpmin=0 / qpmax=69 / qpstep=4 / ip_ratio=1.40 / aq=1:1.00
Language : English
Default : Yes
Forced : No

Audio #1
ID : 2
Format : AC-3
Format/Info : Audio Coding 3
Commercial name : Dolby Digital
Codec ID : A_AC3
Duration : 1 h 24 min
Bit rate mode : Constant
Bit rate : 192 kb/s
Channel(s) : 2 channels
Channel layout : L R
Sampling rate : 48.0 kHz
Frame rate : 31.250 FPS (1536 SPF)
Compression mode : Lossy
Stream size : 116 MiB (8%)
Title : DUB | ТЕТ
Language : Ukrainian
Service kind : Complete Main
Default : Yes
Forced : Yes

Audio #2
ID : 3
Format : AC-3
Format/Info : Audio Coding 3
Commercial name : Dolby Digital
Codec ID : A_AC3
Duration : 1 h 24 min
Bit rate mode : Constant
Bit rate : 640 kb/s
Channel(s) : 6 channels
Channel layout : L R C LFE Ls Rs
Sampling rate : 48.0 kHz
Frame rate : 31.250 FPS (1536 SPF)
Compression mode : Lossy
Stream size : 386 MiB (27%)
Title : Original
Language : English
Service kind : Complete Main
Default : No
Forced : No
Скріншоти:


Запис/зведення/ріп: sergiyko


 Трекер:    Зареєстрований   

Завантажити / скачати мультфільм українською



відео для новачків



 Зареєстрований:   2020-06-14 14:29
 Розмір:   1.39 GB 
 Оцінка мультфільму:   7/10 (Голосів: 20)
   
Інші релізи
   Велика мандрівка / The Big Trip (2019) 720p Ukr/Eng sergiyko.5  17 / 0   2.25 GB   2020-06-14 17:17 
   Велика мандрівка / The Big Trip (2019) 1080p Ukr/Eng sergiyko.5  15 / 0   6.97 GB   2020-06-14 14:39 
11FrYkT 
Модератор відео


З нами з: 20.02.11
Востаннє: 23.10.20
Повідомлень: 7004

2020-06-14 14:37  
sergiyko.5 написано:
оригінал кодек: 5.1 бітрейт: 640 кб/с

такі доріжки не варто додавати в АВЦ

GAD68 
Новенький


З нами з: 14.01.09
Востаннє: 23.10.20
Повідомлень: 6

2020-06-22 23:14  
Діти не стали дивитись .....
nomadcat 
Новенький


З нами з: 13.09.11
Востаннє: 14.10.20
Повідомлень: 4

2020-06-23 10:56  
бридка совкова музика іноді присутня...
Хельга 48 
Свій


З нами з: 02.02.14
Востаннє: 22.10.20
Повідомлень: 117

2020-06-23 23:38  
це таким чином м цкалі познущалися над мультом "Лелекі"?
Ваш часовий пояс: GMT + 2 Години

Нова тема   Відповісти