Чемпіонат України 2019-20 / Прем'єр Ліга / 26-й тур / Зоря - Динамо Київ / 2+2 (13.06.2020) 720p

Нові коментарі

Нова тема   Відповісти
Останній раз роздавалося antik_2008 (2020-09-29)
Автор Повідомлення
Anonymous 







2020-06-14 13:53  
Чемпіонат України 2019-20 / Прем'єр Ліга / 26-й тур / Зоря - Динамо Київ / 2+2 (13.06.2020) 720p

Чемпіонат України 2019-20 / Прем'єр Ліга / 26-й тур / Зоря - Динамо Київ / 2+2 (13.06.2020) 720p


Телеканал: 2+2
Країна: Україна
Опис:
Чемпіонат України 2019-20 / Прем'єр Ліга / 26-й тур / Зоря - Динамо Київ
Тривалість:
00:53:32 + 00:52:44
Якість: 720p
Відео:
кодек:
розмір кадру: 1280x720
бітрейт: ~2700 кб/с

Аудіо:
мова: українська
переклад: одноголосий закадровий | Сергій Пейчев
кодек: 2.0
бітрейт: 128 кб/с
Склади:






Скріншоти




Info
Код:
General
Complete name                            : Zorya vs Dynamo Kyiv (13.06.2020) 720p [UA]\2.
Format                                   :
Format version                           : Version 2
File size                                : 1.29 GiB
Duration                                 : 1 h 4 min
Overall bit rate                         : 2 859 kb/s
Writing application                      : Lavf54.63.104
Writing library                          : Lavf54.63.104

Video
ID                                       : 1
Format                                   : AVC
Format/Info                              : Advanced Video Codec
Format profile                           : [email protected]
Format settings                          : CABAC / 4 Ref Frames
Format settings, CABAC                   : Yes
Format settings, RefFrames               : 4 frames
Codec ID                                 : V_MPEG4/ISO/AVC
Duration                                 : 1 h 4 min
Bit rate                                 : 2 674 kb/s
Width                                    : 1 280 pixels
Height                                   : 720 pixels
Display aspect ratio                     : 16:9
Frame rate mode                          : Constant
Frame rate                               : 50.000 FPS
Color space                              : YUV
Chroma subsampling                       : 4:2:0
Bit depth                                : 8 bits
Scan type                                : Progressive
Bits/(Pixel*Frame)                       : 0.058
Stream size                              : 1.21 GiB (94%)
Default                                  : No
Forced                                   : No

Audio
ID                                       : 2
Format                                   : AC-3
Format/Info                              : Audio Coding 3
Commercial name                          : Dolby Digital
Codec ID                                 : A_AC3
Duration                                 : 1 h 4 min
Bit rate mode                            : Constant
Bit rate                                 : 128 kb/s
Channel(s)                               : 2 channels
Channel layout                           : L R
Sampling rate                            : 48.0 kHz
Frame rate                               : 31.250 FPS (1536 SPF)
Bit depth                                : 16 bits
Compression mode                         : Lossy
Stream size                              : 59.1 MiB (4%)
Language                                 : Ukrainian
Service kind                             : Complete Main
Default                                  : Yes
Forced                                   : No
Подяка за допомогу у створенні релізу : rgfootball
Особиста оцінка: 7 - моїй подрузі не сподобалося


Золотий реліз (завантажене не впливає на рейтинг)
 Трекер:    Зареєстрований   

Завантажити / скачати торрент



відео для новачків



 Зареєстрований:   2020-06-14 13:53
 Розмір:   2.33 GB 
 Оцінка:   9/10 (Голосів: 1)
   
Ваш часовий пояс: GMT + 2 Години

Нова тема   Відповісти