Зразковий самець 2 / Zoolander 2 (2016) 1080p Ukr/Eng | Sub Eng

Нові коментарі

Нова тема   Відповісти
Автор Повідомлення
staf777 
Відео Гуртом - підтримка та поширення
Відео Гуртом - підтримка та поширення


З нами з: 16.11.16
Востаннє: 12.08.20
Повідомлень: 3937

2020-06-13 20:14  
Зразковий самець 2 / Zoolander 2 (2016) 1080p Ukr/Eng | Sub Eng

Зразковий самець 2 / Zoolander 2 (2016) 1080p Ukr/Eng | Sub Eng


Жанр: комедія
Країна: США



Кінокомпанія: Red Hour Films, Scott Rudin Productions; мейджор – Paramount Pictures.
Режисер: Бен Стіллер
Актори: Бен Стіллер, Оуен Вілсон, Вілл Феррелл, Мілла Йовович, Джастін Бібер, Пенелопа Круз.

Сюжет:
Минуло десять років після подій, описаних у першому фільмі. Зірку подіуму Дерека Зуландера (Бен Стіллер) уже мало хто пам'ятає. Але відбуваються події, внаслідок яких до нього прикуто загальну увагу. Найкрасивіших людей світу вбивають, і перед смертю вони роблять селфі, дивлячись у камеру коронним поглядом Дерека «Блакитна Сталь». І лише сам Дерек може покласти цьому край, знову пробравшись на самісіньку вершину світу моди.


Тривалість: 01:41:48
Якість:
Відео:
кодек:
розмір кадру: 1920x804
бітрейт: 11700 кб/с

Аудіо # 1:
мова: українська
переклад: професійний дубльований
кодек: 5.1
бітрейт: 448 кб/с

Аудіо # 2:
мова: англійська
переклад: оригінал
кодек: 5.1
бітрейт: 448 кб/с

Джерело озвучення:


Субтитри:
мова: англійська
тип: програмні (м'які)
формат: *.srt
Info
General
Unique ID : 218239306035650968991686240023103779500 (0xA42F5C8839B570367C4608F612DDB2AC)
Complete name : Z:\Фільми в HD\Комедія\Zoolander 2 (2016) 1080p [UKR_ENG] [Hurtom].
Format :
Format version : Version 4
File size : 8.96 GiB
Duration : 1 h 41 min
Overall bit rate : 12.6 Mb/s
Movie name : Зразковий самець 2 / Zoolander 2 (2016) 1080p [UKR_ENG] [Hurtom]
Encoded date : UTC 2020-06-13 16:54:19
Writing application : v46.0.0 ('No Deeper Escape') 64-bit
Writing library : libebml v1.3.10 + v1.5.2
Cover : Yes
Attachments : cover

Video
ID : 1
Format : AVC
Format/Info : Advanced Video Codec
Format profile : [email protected]
Format settings : CABAC / 5 Ref Frames
Format settings, CABAC : Yes
Format settings, Reference : 5 frames
Codec ID : V_MPEG4/ISO/AVC
Duration : 1 h 41 min
Bit rate : 11.7 Mb/s
Width : 1 920 pixels
Height : 804 pixels
Display aspect ratio : 2.40:1
Frame rate mode : Constant
Frame rate : 23.976 (24000/1001) FPS
Color space : YUV
Chroma subsampling : 4:2:0
Bit depth : 8 bits
Scan type : Progressive
Bits/(Pixel*Frame) : 0.316
Stream size : 8.32 GiB (93%)
Title : HiFi
Writing library : core 148 r2692 64f4e24
Encoding settings : cabac=1 / ref=5 / deblock=1:-3:-3 / analyse=0x3:0x133 / me=umh / subme=11 / psy=1 / psy_rd=1.05:0.00 / mixed_ref=1 / me_range=48 / chroma_me=1 / trellis=2 / 8x8dct=1 / cqm=0 / deadzone=21,11 / fast_pskip=0 / chroma_qp_offset=-2 / threads=6 / lookahead_threads=1 / sliced_threads=0 / nr=0 / decimate=0 / interlaced=0 / bluray_compat=0 / constrained_intra=0 / bframes=12 / b_pyramid=2 / b_adapt=2 / b_bias=0 / direct=3 / weightb=1 / open_gop=0 / weightp=2 / keyint=250 / keyint_min=23 / scenecut=40 / intra_refresh=0 / rc_lookahead=60 / rc=crf / mbtree=0 / crf=15.6 / qcomp=0.65 / qpmin=0 / qpmax=69 / qpstep=4 / vbv_maxrate=50000 / vbv_bufsize=625000 / crf_max=0.0 / nal_hrd=none / filler=0 / ip_ratio=1.40 / pb_ratio=1.30 / aq=3:0.60
Language : English
Default : Yes
Forced : No

Audio #1
ID : 2
Format : AC-3
Format/Info : Audio Coding 3
Commercial name : Dolby Digital
Codec ID : A_AC3
Duration : 1 h 41 min
Bit rate mode : Constant
Bit rate : 448 kb/s
Channel(s) : 6 channels
Channel layout : L R C LFE Ls Rs
Sampling rate : 48.0 kHz
Frame rate : 31.250 FPS (1536 SPF)
Compression mode : Lossy
Stream size : 326 MiB (4%)
Title : 5.1 @ 448 kbps
Language : Ukrainian
Service kind : Complete Main
Default : Yes
Forced : Yes

Audio #2
ID : 3
Format : AC-3
Format/Info : Audio Coding 3
Commercial name : Dolby Digital
Codec ID : A_AC3
Duration : 1 h 41 min
Bit rate mode : Constant
Bit rate : 448 kb/s
Channel(s) : 6 channels
Channel layout : L R C LFE Ls Rs
Sampling rate : 48.0 kHz
Frame rate : 31.250 FPS (1536 SPF)
Compression mode : Lossy
Stream size : 326 MiB (4%)
Title : 5.1 @ 448 kbps
Language : English
Service kind : Complete Main
Default : No
Forced : No

Text #1
ID : 4
Format : UTF-8
Codec ID : S_TEXT/UTF8
Codec ID/Info : UTF-8 Plain Text
Duration : 1 h 33 min
Bit rate : 64 b/s
Count of elements : 1383
Stream size : 44.2 KiB (0%)
Title : Full
Language : English
Default : No
Forced : No

Text #2
ID : 5
Format : UTF-8
Codec ID : S_TEXT/UTF8
Codec ID/Info : UTF-8 Plain Text
Duration : 1 h 34 min
Bit rate : 68 b/s
Count of elements : 1686
Stream size : 47.9 KiB (0%)
Title : SDH
Language : English
Default : No
Forced : No

Menu
00:00:00.000 : en:Chapter 1
00:07:40.877 : en:Chapter 2
00:12:25.370 : en:Chapter 3
00:15:26.217 : en:Chapter 4
00:22:49.868 : en:Chapter 5
00:28:41.136 : en:Chapter 6
00:31:07.074 : en:Chapter 7
00:36:42.617 : en:Chapter 8
00:42:54.614 : en:Chapter 9
00:48:54.974 : en:Chapter 10
00:56:57.039 : en:Chapter 11
01:07:00.225 : en:Chapter 12
01:14:33.010 : en:Chapter 13
01:18:17.067 : en:Chapter 14
01:23:42.226 : en:Chapter 15
01:33:15.548 : en:Chapter 16


Джерело: &


 Трекер:    Зареєстрований   

Завантажити / скачати фільм українською



відео для новачків



 Зареєстрований:   2020-06-13 20:14
 Розмір:   8.96 GB 
 Оцінка фільму:   7.8/10 (Голосів: 4)
   
Інші релізи
Ваш часовий пояс: GMT + 2 Години

Нова тема   Відповісти