Нишком / Chupke Chupke / (चुपके चुपके) (1975) 1080p Ukr/Hin | Sub Eng

Нові коментарі

Нова тема   Відповісти
Автор Повідомлення
Anonymous 







2020-06-13 18:36  
Нишком / Chupke Chupke / (चुपके चुपके) (1975) 1080p Ukr/Hin | Sub Eng

Нишком / Chupke Chupke / (चुपके चुपके) (1975) 1080p Ukr/Hin | Sub Eng


Жанр: комедія, драма, романтичний, музичний
Країна: Індія



Кінокомпанія: N.C Sippy
Режисер: Рішекеш Мукхарджі
Актори: Тхармендра Шарміла Тагур, Амітабх Бахчан, Джая Бхадурі, Девід Уша Кірна, Лілі Чакрабарті

Сюжет:
Дія фільму розгортається навколо Паріман Тріпаті і його дружини Сулехі.
Паріман - великий жартівник, що обожнює розіграші, що бавить Сулехі.
Жертвою розіграшів Паріман і Сулехі стає її старий приятель Сукумар Сінх - серйозний і нудний лектор, професор літератури, повна протилежність Паріман.


Тривалість: 02:25:37
Якість:
Відео:
кодек:
розмір кадру: 1440 х 1080
бітрейт: 5748 кб/с

Аудіо # 1:
мова: українська
переклад: двоголосий закадровий | KIT
кодек: 2.0
бітрейт: 192 кб/с
примітка
Через порізану версію від КІТ в цих відрізках вставлено оригінальну доріжку
31:18-33:49 - тут просто співають
01:05:41-01:08:54
01:12:47-01:13:12
01:20:42-01:20:56
01:29:37-01:30:46
01:57:33-02:01:17 - тут теж просто співають
Аудіо # 2:
мова: гінді
переклад: оригінал
кодек: 2.0
бітрейт: 224 кб/с

Субтитри:
мова: англійська
тип: програмні (м'які)
формат: *.srt
Info
Video
ID : 1
Format : AVC
Format/Info : Advanced Video Codec
Format profile : [email protected]
Format settings : CABAC / 5 Ref Frames
Format settings, CABAC : Yes
Format settings, Reference fra : 5 frames
Codec ID : V_MPEG4/ISO/AVC
Duration : 2 h 25 min
Bit rate : 5 748 kb/s
Width : 1 440 pixels
Height : 1 080 pixels
Display aspect ratio : 4:3
Frame rate mode : Constant
Frame rate : 24.000 FPS
Color space : YUV
Chroma subsampling : 4:2:0
Bit depth : 8 bits
Scan type : Progressive
Bits/(Pixel*Frame) : 0.154
Stream size : 5.85 GiB (93%)
Writing library : core 146 r2538 121396c
Encoding settings : cabac=1 / ref=5 / deblock=1:-1:-1 / analyse=0x3:0x133 / me=umh / subme=10 / psy=1 / psy_rd=1.00:0.15 / mixed_ref=1 / me_range=24 / chroma_me=1 / trellis=2 / 8x8dct=1 / cqm=0 / deadzone=21,11 / fast_pskip=0 / chroma_qp_offset=-3 / threads=12 / lookahead_threads=2 / sliced_threads=0 / nr=1000 / decimate=1 / interlaced=0 / bluray_compat=0 / constrained_intra=0 / bframes=8 / b_pyramid=2 / b_adapt=2 / b_bias=0 / direct=3 / weightb=1 / open_gop=0 / weightp=2 / keyint=250 / keyint_min=24 / scenecut=40 / intra_refresh=0 / rc_lookahead=60 / rc=2pass / mbtree=1 / bitrate=5748 / ratetol=1.0 / qcomp=0.60 / qpmin=0 / qpmax=69 / qpstep=4 / cplxblur=20.0 / qblur=0.5 / ip_ratio=1.40 / aq=1:1.00
Language : Hindi
Default : Yes
Forced : No

Audio #1
ID : 2
Format : AC-3
Format/Info : Audio Coding 3
Commercial name : Dolby Digital
Codec ID : A_AC3
Duration : 2 h 25 min
Bit rate mode : Constant
Bit rate : 192 kb/s
Channel(s) : 2 channels
Channel layout : L R
Sampling rate : 48.0 kHz
Frame rate : 31.250 FPS (1536 SPF)
Compression mode : Lossy
Stream size : 200 MiB (3%)
Title : DVO - KIT
Language : Ukrainian
Service kind : Complete Main
Default : Yes
Forced : No

Audio #2
ID : 3
Format : AC-3
Format/Info : Audio Coding 3
Commercial name : Dolby Digital
Codec ID : A_AC3
Duration : 2 h 25 min
Bit rate mode : Constant
Bit rate : 224 kb/s
Channel(s) : 2 channels
Channel layout : L R
Sampling rate : 48.0 kHz
Frame rate : 31.250 FPS (1536 SPF)
Compression mode : Lossy
Stream size : 233 MiB (4%)
Language : Hindi
Service kind : Complete Main
Default : No
Forced : No

Text
ID : 4
Format : UTF-8
Codec ID : S_TEXT/UTF8
Codec ID/Info : UTF-8 Plain Text
Duration : 2 h 24 min
Bit rate : 70 b/s
Count of elements : 2007
Stream size : 75.1 KiB (0%)
Language : English
Default : No
Forced : No
Скріншоти



















Джерело:
Особиста оцінка: 8 - мені сподобалося


Срібний реліз (на рейтинг впливає 50% завантаженого)
 Трекер:    Зареєстрований   

Завантажити / скачати фільм українською



відео для новачків



 Зареєстрований:   2020-06-13 18:36
 Розмір:   6.27 GB 
 Оцінка фільму:   9.7/10 (Голосів: 3)
   
21jumpstreet 
VIP


З нами з: 03.07.12
Востаннє: 22.09.20
Повідомлень: 1233

2020-06-13 22:08  
Можна Avi?
Anonymous 







2020-06-13 23:32  
21jumpstreet написано:
Можна Avi?

https://toloka.to/t111704

11FrYkT 
Модератор відео


З нами з: 20.02.11
Востаннє: 21.09.20
Повідомлень: 6992

2020-06-14 09:06  
Anonymous написано:
Bits/(Pixel*Frame) : 0.154

Anonymous написано:
rc=2pass / mbtree=1 / bitrate=5748

міні, треба замінити відео

Anonymous 







2020-06-14 09:57  
11FrYkT написано:
міні, треба замінити відео

здається, що правила суперечать самі собі

Цитата:

Параметри кодування мають відповідати хоча б me=umh, subme=7, ref=3
2pass: значення Bits/(Pixel*Frame) має бути не меншим, ніж 0.12


Цитата:

mini - це релізи, в яких значення Bits/(Pixel*Frame) менше, ніж 0.16


Та й замінити нема чим.

11FrYkT 
Модератор відео


З нами з: 20.02.11
Востаннє: 21.09.20
Повідомлень: 6992

2020-06-14 10:45  
Anonymous написано:
здається, що правила суперечать самі собі

ні не суперечать від 0,12 до 0,16 це міні, від 0,16 і більше просто НД, менше 0,12 взагалі не проходить ніяк

Anonymous написано:
Та й замінити нема чим.

тоді можливо вебкою, або закодувати, чи може яка 720 є

Anonymous 







2020-06-14 11:43  
11FrYkT написано:
тоді можливо вебкою, або закодувати, чи може яка 720 є

Це єдина і найркраща HD якість, яка є у вільному доступі, навіть на індійських сайтах нема кращого.
Тут всього навсього не вистачає 0.06 до 0.16, на мою думку таке можна пропустити, але якщо принципіально то хай буде недооформленно чи просто без перевірки.

11FrYkT 
Модератор відео


З нами з: 20.02.11
Востаннє: 21.09.20
Повідомлень: 6992

2020-06-14 15:23  
Anonymous написано:
Тут всього навсього не вистачає 0.06 до 0.16, на мою думку таке можна пропустити, але якщо принципіально то хай буде недооформленно чи просто без перевірки.

що 1 що 2 варіант смітник, поки залишаю у вигляді виключення бо сам не бачу щось краще

Ваш часовий пояс: GMT + 2 Години

Нова тема   Відповісти