Містер Селфрідж (Сезон 1) / Mr Selfridge (Season 1) (2013) 1080p 2xUkr/Eng

Нові коментарі

Нова тема   Відповісти
Автор Повідомлення
sergiyko.5 
Забанено
Забанено


З нами з: 25.02.16
Востаннє: 29.10.20
Повідомлень: 3650

2020-06-13 17:36  


Містер Селфрідж / Mr Selfridge (Сезон 1) (2013) 1080p 2xUkr/Eng


Містер Селфрідж (Сезон 1) / Mr Selfridge (Season 1) (2013) 1080p 2xUkr/Eng

Жанр: драма, історичний
Країна: Велика Британія
Кінокомпанія: ITV Studios
Режисер: Ентоні Бірн, Майкл Кейллор, Джон Джонс
Актори: Джеремі Півен, Сефора Венітес, Том Гудман-Хілл, Аманда Аббінгтон, Поппі Лі Фраєр, Кетерін Келлі, Уїлл Пейн, Роанна Кокрейн, Зої Таппер, Деніел Чаппл

Сюжет:
Середньостатистичний американський підприємець Селфрідж опиняється в самому центрі зосередження амбітного проекту. Сталося це в період його візиту в британську столицю на світанку 20-го століття. Під час поїздки Селфрідж переконується, що Англії бракує торгових центрів. У 1909 році підприємець відкриває перше подібне місце. В історії буде висвітлена значна частина його життя, де будуть пережиті як злети, так і падіння власної справи.




Тривалість: 1 серія: 45:00 (цілком серій: 10 з 10)
Якість:

Відео: кодек: розмір кадру: 1912x1072 бітрейт: 4900 кб/с
Аудіо # 1: мова: українська переклад: двоголосий закадровий кодек: 2.0 бітрейт: 192 кб/с
Озвучення: ТВ+
Аудіо # 2: мова: українська переклад: багатоголосий закадровий кодек: 2.0 бітрейт: 192 кб/с
Озвучення: 1+1
Аудіо # 3: мова: англійська переклад: оригінал кодек: 2.0 бітрейт: 192 кб/с
Перелік серій
епізод 01
епізод 02
епізод 03
епізод 04
епізод 05
епізод 06
епізод 07
епізод 08
епізод 09
епізод 10
Про файл:
General
Unique ID : 307365153054760645336696478380859482929 (0xE73C600DF46C041C14E92F7C793E6331)
Complete name : C:\Users\Sergij\Documents\Mr.Selfridge S01 1080p \Mr.Selfridge.S01E01.1080p..
Format :
Format version : Version 4
File size : 2.41 GiB
Duration : 1 h 2 min
Overall bit rate : 5 545 kb/s
Movie name : Mr.Selfridge S01 1080p by sergiyko
Encoded date : UTC 2020-06-13 15:24:47
Writing application : v47.0.0 ('Black Flag') 64-bit
Writing library : libebml v1.3.10 + v1.5.2

Video
ID : 1
Format : AVC
Format/Info : Advanced Video Codec
Format profile : [email protected]
Format settings : CABAC / 4 Ref Frames
Format settings, CABAC : Yes
Format settings, Reference : 4 frames
Codec ID : V_MPEG4/ISO/AVC
Duration : 1 h 2 min
Bit rate : 4 967 kb/s
Width : 1 912 pixels
Height : 1 072 pixels
Display aspect ratio : 16:9
Frame rate mode : Constant
Frame rate : 25.000 FPS
Color space : YUV
Chroma subsampling : 4:2:0
Bit depth : 8 bits
Scan type : Progressive
Bits/(Pixel*Frame) : 0.097
Stream size : 2.16 GiB (90%)
Title : S01E01
Language : English
Default : Yes
Forced : No
Color range : Limited
Color primaries : BT.709
Transfer characteristics : BT.709
Matrix coefficients : BT.709

Audio #1
ID : 2
Format : AC-3
Format/Info : Audio Coding 3
Commercial name : Dolby Digital
Codec ID : A_AC3
Duration : 1 h 2 min
Bit rate mode : Constant
Bit rate : 192 kb/s
Channel(s) : 2 channels
Channel layout : L R
Sampling rate : 48.0 kHz
Frame rate : 31.250 FPS (1536 SPF)
Compression mode : Lossy
Stream size : 85.6 MiB (3%)
Title : MOV | КІТ
Language : Ukrainian
Service kind : Complete Main
Default : Yes
Forced : Yes

Audio #2
ID : 3
Format : AC-3
Format/Info : Audio Coding 3
Commercial name : Dolby Digital
Codec ID : A_AC3
Duration : 1 h 2 min
Bit rate mode : Constant
Bit rate : 192 kb/s
Channel(s) : 2 channels
Channel layout : L R
Sampling rate : 48.0 kHz
Frame rate : 31.250 FPS (1536 SPF)
Compression mode : Lossy
Stream size : 85.6 MiB (3%)
Title : MOV | 1+1
Language : Ukrainian
Service kind : Complete Main
Default : No
Forced : No

Audio #3
ID : 4
Format : AC-3
Format/Info : Audio Coding 3
Commercial name : Dolby Digital
Codec ID : A_AC3
Duration : 1 h 2 min
Bit rate mode : Constant
Bit rate : 192 kb/s
Channel(s) : 2 channels
Channel layout : L R
Sampling rate : 48.0 kHz
Frame rate : 31.250 FPS (1536 SPF)
Compression mode : Lossy
Stream size : 85.6 MiB (3%)
Title : Original
Language : English
Service kind : Complete Main
Default : No
Forced : No
Скріншоти:


Запис: Neytreenor, sergiyko
Зведення: sergiyko


Бронзовий реліз (на рейтинг впливає 75% завантаженого)
 Трекер:    Зареєстрований   

Завантажити / скачати серіал українською



відео для новачків



 Зареєстрований:   2020-06-13 17:36
 Розмір:   18.24 GB 
 Оцінка серіалу:   10/10 (Голосів: 2)
   
leicheman 
Відео Гуртом - фільмокрай
Відео Гуртом - фільмокрай


З нами з: 03.07.14
Востаннє: 05.12.20
Повідомлень: 5709

2020-06-13 17:40  
так є ж блюрей
sergiyko.5 
Забанено
Забанено


З нами з: 25.02.16
Востаннє: 29.10.20
Повідомлень: 3650

2020-06-13 17:45  
Зробив з початку під WEB, не викидать же. Тут відео 25 кадрів, звук не розтягувався. Розмір нормальний.
Слідуючий реліз буде 1080p сезон 30-40Гб.

Neytreenor 
Відео Гуртом - запис з ТБ
Відео Гуртом - запис з ТБ


З нами з: 03.04.11
Востаннє: 05.12.20
Повідомлень: 2924

2020-06-13 17:49  
sergiyko.5 написано:
Озвучення: КІТ

Згідно fl_fl це ТВ+. І треба вказати 2xUkr.

leicheman 
Відео Гуртом - фільмокрай
Відео Гуртом - фільмокрай


З нами з: 03.07.14
Востаннє: 05.12.20
Повідомлень: 5709

2020-06-13 17:51  
sergiyko.5 написано:
Тут відео 25 кадрів

в блюрі наскільки я пам'ятаю коли зводив 7-8 серії також 25

sergiyko.5 
Забанено
Забанено


З нами з: 25.02.16
Востаннє: 29.10.20
Повідомлень: 3650

2020-06-13 18:24  
Я в блюрі не зводив, а наявний в мене має 23.976 кадра за секунду. Тому закінчуйте флудити в темі.
masterpiecer 
Відео Гуртом - підтримка та поширення
Відео Гуртом - підтримка та поширення


З нами з: 02.10.09
Востаннє: 05.12.20
Повідомлень: 859

2020-06-13 23:14  
Neytreenor все так, перший-третій сезон - Олександр Фурман і Тетяна Антонова, четвертий замість Антонової Ольга Гриськова.
11FrYkT 
Модератор відео


З нами з: 20.02.11
Востаннє: 05.12.20
Повідомлень: 7059

2020-06-14 08:13  
sergiyko.5 написано:
Субтитри: мова: англійська тип: програмні (м'які) формат: *.srt

так саби є чи ні?

sergiyko.5 
Забанено
Забанено


З нами з: 25.02.16
Востаннє: 29.10.20
Повідомлень: 3650

2020-06-14 08:40  
11FrYkT
Опис підправив, субтитрів немає.

sergiyko.5 
Забанено
Забанено


З нами з: 25.02.16
Востаннє: 29.10.20
Повідомлень: 3650

2020-06-14 20:30  
Серіал в 1080p перший, другий та третій сезони - https://toloka.to/t111751
Ваш часовий пояс: GMT + 2 Години

Нова тема   Відповісти