Уперед / Onward (2020) 1080p Ukr/Eng | Sub Eng

Нові коментарі

Нова тема   Відповісти
Автор Повідомлення
staf777 
Відео Гуртом - підтримка та поширення
Відео Гуртом - підтримка та поширення


З нами з: 16.11.16
Востаннє: 10.07.20
Повідомлень: 3856

2020-06-12 10:02  
Уперед / Onward (2020) 1080p Ukr/Eng | Sub Eng


Альтернативний постер


Жанр: комедія, мультфільм, пригоди, сімейний, фентезі
Країна: США



Кінокомпанія: Walt Disney Pictures, Pixar Animation Studios
Режисер: Ден Скенлон
Ролі озвучують: Том Голланд, Кріс Претт, Джулія Луіс-Дрейфус, Октавія Спенсер, Мел Родрігез, Кайл Борнхаймер, Алі Вонг, Грей ДеЛісл, Трейсі Уллмен

Сюжет:
Історія двох братів-ельфів, які живуть в сучасному світі пліч-о-пліч з іншими магічними істотами. В їхньому світі майже не залишилося магії, тому коли брати отримують шанс на один день оживити свого батька, вони відправляються в захоплюючий квест, де їм доведеться пройти безліч випробувань.


Тривалість: 01:42:26
Якість:

Відео:
кодек:
розмір кадру: 1920х804
бітрейт: 9887 кб/с

Аудіо # 1:
мова: українська
переклад: професійний дубльований
кодек: 5.1
бітрейт: 384 кб/с

Аудіо # 2:
мова: англійська
переклад: оригінал
кодек: 5.1
бітрейт: 640 кб/с

Субтитри:
мова: англійська
тип: програмні (м'які)
формат: *.srt
Info
Код:

General
Unique ID                   : 85667447270001191184427479811701459465 (0x4072F34005ADC8A338B02AEF2F5DCA09)
Complete name               : Z:\Мультфільми в HD\Onward (2020) 1080p [UKR_ENG] [Hurtom].
Format                      :
Format version              : Version 4
File size                   : 7.80 GiB
Duration                    : 1 h 42 min
Overall bit rate            : 10.9 Mb/s
Movie name                  : Уперед / Onward (2020) 1080p [UKR_ENG] [Hurtom]
Encoded date                : UTC 2020-06-12 07:48:42
Writing application         : v46.0.0 ('No Deeper Escape') 64-bit
Writing library             : libebml v1.3.10 + v1.5.2
Cover                       : Yes
Attachments                 : cover.jpg

Video
ID                          : 1
Format                      : AVC
Format/Info                 : Advanced Video Codec
Format profile              : [email protected]
Format settings             : CABAC / 5 Ref Frames
Format settings, CABAC      : Yes
Format settings, Reference  : 5 frames
Codec ID                    : V_MPEG4/ISO/AVC
Duration                    : 1 h 42 min
Bit rate                    : 9 887 kb/s
Width                       : 1 920 pixels
Height                      : 804 pixels
Display aspect ratio        : 2.40:1
Frame rate mode             : Constant
Frame rate                  : 23.976 (24000/1001) FPS
Color space                 : YUV
Chroma subsampling          : 4:2:0
Bit depth                   : 8 bits
Scan type                   : Progressive
Bits/(Pixel*Frame)          : 0.267
Stream size                 : 7.07 GiB (91%)
Title                       : MTeam
Writing library             : core 157 r2938 2b00a84 [email protected] Mod
Encoding settings           : cabac=1 / ref=5 / deblock=1:-3:-3 / analyse=0x3:0x133 / me=umh / subme=10 / psy=1 / psy_rd=1.05:0.00 / mixed_ref=1 / me_range=32 / chroma_me=1 / trellis=2 / 8x8dct=1 / cqm=0 / deadzone=21,11 / fast_pskip=0 / chroma_qp_offset=-2 / threads=12 / lookahead_threads=2 / sliced_threads=0 / nr=0 / decimate=0 / interlaced=0 / bluray_compat=0 / constrained_intra=0 / bframes=8 / b_pyramid=2 / b_adapt=2 / b_bias=0 / direct=3 / weightb=1 / open_gop=0 / weightp=2 / keyint=250 / keyint_min=24 / scenecut=40 / intra_refresh=0 / rc_lookahead=250 / rc=crf / mbtree=0 / crf=16.8 / qcomp=0.60 / qpmin=0 / qpmax=69 / qpstep=4 / vbv_maxrate=62500 / vbv_bufsize=78125 / crf_max=0.0 / nal_hrd=none / filler=0 / ip_ratio=1.30 / pb_ratio=1.20 / aq=3:0.80
Language                    : English
Default                     : Yes
Forced                      : No
Color range                 : Limited
Color primaries             : BT.709
Matrix coefficients         : BT.709

Audio #1
ID                          : 2
Format                      : AC-3
Format/Info                 : Audio Coding 3
Commercial name             : Dolby Digital
Codec ID                    : A_AC3
Duration                    : 1 h 42 min
Bit rate mode               : Constant
Bit rate                    : 384 kb/s
Channel(s)                  : 6 channels
Channel layout              : L R C LFE Ls Rs
Sampling rate               : 48.0 kHz
Frame rate                  : 31.250 FPS (1536 SPF)
Compression mode            : Lossy
Stream size                 : 281 MiB (4%)
Title                       : Dub [Ledoyen, іTunеs], 5.1 384 kbps
Language                    : Ukrainian
Service kind                : Complete Main
Default                     : Yes
Forced                      : Yes

Audio #2
ID                          : 3
Format                      : AC-3
Format/Info                 : Audio Coding 3
Commercial name             : Dolby Digital
Codec ID                    : A_AC3
Duration                    : 1 h 42 min
Bit rate mode               : Constant
Bit rate                    : 640 kb/s
Channel(s)                  : 6 channels
Channel layout              : L R C LFE Ls Rs
Sampling rate               : 48.0 kHz
Frame rate                  : 31.250 FPS (1536 SPF)
Compression mode            : Lossy
Stream size                 : 469 MiB (6%)
Title                       : Original
Language                    : English
Service kind                : Complete Main
Default                     : No
Forced                      : No

Text
ID                          : 4
Format                      : UTF-8
Codec ID                    : S_TEXT/UTF8
Codec ID/Info               : UTF-8 Plain Text
Duration                    : 1 h 35 min
Bit rate                    : 75 b/s
Count of elements           : 1904
Stream size                 : 53.0 KiB (0%)
Language                    : English
Default                     : No
Forced                      : No

Menu
00:00:00.686                : en:Studio Logo
00:00:49.686                : en:Long ago
00:03:04.686                : en:Title Sequence
00:03:09.686                : en:Ian's morning
00:05:03.686                : en:Officer Bronco comes to Ligjtfoots
00:07:03.686                : en:Ian meet Dad's friend
00:08:14.686                : en:Making a list
00:09:34.686                : en:Ian starts his day
00:12:44.686                : en:Ian misses his Dad
00:14:53.686                : en:A gift from Dad
00:19:17.686                : en:Ian is at his room
00:20:38.686                : en:Barley comes up with something
00:23:46.686                : en:Barley drives his car
00:25:34.686                : en:Learning magic
00:27:25.686                : en:The boys look for the Manticore
00:31:21.686                : en:The Manticore comes back
00:32:49.686                : en:Laurel worries about the boys
00:36:33.686                : en:Guinevere gets a trouble
00:39:34.686                : en:Ian tries magic again
00:42:48.686                : en:The Manticore talks to Laurel
00:44:00.686                : en:Ian drives Guinevere
00:47:48.686                : en:The spell wears off
00:51:43.686                : en:Barley argues with Ian
00:54:59.686                : en:Grecklin of the Pawn shop
00:56:07.686                : en:Bronco calls Laurel
00:57:24.686                : en:Raven's Point
01:03:06.686                : en:Bronco chases the boys
01:07:05.686                : en:The boys follow the birds
01:08:49.686                : en:Ian likes the spell
01:10:06.686                : en:Laurel encounters Pixie Dusters
01:11:12.686                : en:Barley talks about Dad
01:13:30.686                : en:The boys are in dangerous
01:15:58.686                : en:Back where they started
01:17:59.686                : en:Barley cannot give it up
01:20:26.686                : en:It's curse
01:22:44.686                : en:I am a mighty warrior
01:24:26.686                : en:Ian's decision
01:26:59.686                : en:What Ian see
01:30:07.686                : en:Ian back to his school
01:32:53.686                : en:End Credits




Джерело:
Особиста оцінка: 0 - не дивився


 Трекер:    Зареєстрований   

Завантажити / скачати мультфільм українською



відео для новачків



 Зареєстрований:   2020-06-12 10:57
 Розмір:   7.8 GB 
 Оцінка мультфільму:   9/10 (Голосів: 22)
   
Інші релізи
   Уперед / Onward (2020) 1080p H.265 Ukr/Eng | Sub Eng -Star-Lord-  26 / 0   6.21 GB   2020-06-16 22:48 
   Уперед / Onward (2020) 720p Ukr/Eng | Sub Eng staf777  37 / 0   3.59 GB   2020-06-13 08:34 
   Уперед / Onward (2020) Ukr/Eng antik_2008  43 / 0   1.98 GB   2020-06-12 01:27 
   Уперед / Onward (2020) Remux 1080p Ukr/Eng | Sub Eng antik_2008  19 / 0   22.47 GB   2020-06-12 00:29 
   Уперед / Onward (2020) UHD Remux 4K 2160p Ukr/Eng | Sub Eng antik_2008  16 / 0   34.59 GB   2020-06-12 00:18 
   Уперед / Onward (2020) 1080p 3D [Half OverUnder] Ukr/Eng | Sub Eng antik_2008  7 / 0   7.88 GB   2020-06-12 00:18 
   Уперед / Onward (2020) AVC Ukr/Eng | Sub Eng 11FrYkT  97 / 0   1.94 GB   2020-06-11 19:53 
bot 
робот


З нами з: 30.09.07
Востаннє: 26.05.05
Повідомлень: 25031

2020-06-12 10:52  
Тему перенесено з Анонси релізів до форуму Мультфільми в HD


staf777

staf777 
Відео Гуртом - підтримка та поширення
Відео Гуртом - підтримка та поширення


З нами з: 16.11.16
Востаннє: 10.07.20
Повідомлень: 3856

2020-06-12 10:59  
Не можу додати скріни - пише помилку Помилка 502 Ray ID: 5a220552b9c38446 • 2020-06-12 07:57:39 UTC
Неправильний шлюз

... потім Вам заборонено користуватися цим сайтом.... це як

IRONHIDE 
VIP


З нами з: 06.08.10
Востаннє: 10.07.20
Повідомлень: 278

2020-06-12 11:24  
Disney вже не знає, що знімати.........тільки би касу косити! Мульт провалився і навіть не відкупився.
zhytkov 
Новенький


З нами з: 08.03.20
Востаннє: 11.07.20
Повідомлень: 3

2020-06-12 11:45  
Цитата:
Мульт провалився і навіть не відкупився.

Він не окупився тому, що пробув в кінотеатрі лише місяць з-за карантину.

Koful 
VIP


З нами з: 05.12.16
Востаннє: 10.07.20
Повідомлень: 300

2020-06-12 13:20  
IRONHIDE написано:
Disney вже не знає, що знімати.........тільки би касу косити!

Там ще й Pixar, на хвилинку!
А мульт бомбезний, просто ви старий і нудний.

yuri369 
Новенький


З нами з: 30.11.15
Востаннє: 10.07.20
Повідомлень: 11

2020-06-12 14:56  
Мульт дуже класний і чуйний. Встиг до карантину з малими у кінотеатрі подивитися. Діти дуже чекали на реліз, щоб знову вдома глянути.
antik_2008 
Релізер і модератор відео


З нами з: 20.10.08
Востаннє: 10.07.20
Повідомлень: 3931

2020-06-13 00:30  
staf777
https://img.hurtom.com/
наче роблять

720 чекати від вас теж ?

staf777 
Відео Гуртом - підтримка та поширення
Відео Гуртом - підтримка та поширення


З нами з: 16.11.16
Востаннє: 10.07.20
Повідомлень: 3856

2020-06-13 08:08  
Не можу зробити скрін - зараз пише таке

Sign in with your account
У вас ще немає акаунта? Зареєструйтесь зараз.

Ім'я користувача або Email

Пароль

Забули пароль?

Ваш часовий пояс: GMT + 2 Години

Нова тема   Відповісти