Уперед / Onward (2020) 1080p 3D [Half OverUnder] Ukr/Eng | Sub Eng

Нові коментарі

Нова тема   Відповісти
Автор Повідомлення
Anonymous 







2020-06-12 00:18  
Уперед / Onward (2020) 1080p 3D [Half OverUnder] Ukr/Eng | Sub Eng


Альтернативний постер


Жанр: комедія, мультфільм, пригоди, сімейний, фентезі
Країна: США



Кінокомпанія: Walt Disney Pictures, Pixar Animation Studios
Режисер: Ден Скенлон
Ролі озвучують: Том Голланд, Кріс Претт, Джулія Луіс-Дрейфус, Октавія Спенсер, Мел Родрігез, Кайл Борнхаймер, Алі Вонг, Грей ДеЛісл, Трейсі Уллмен

Сюжет:
Історія двох братів-ельфів, які живуть в сучасному світі пліч-о-пліч з іншими магічними істотами. В їхньому світі майже не залишилося магії, тому коли брати отримують шанс на один день оживити свого батька, вони відправляються в захоплюючий квест, де їм доведеться пройти безліч випробувань.


Тривалість: 01:42:22
Якість: 1080p 3D

Відео:
кодек:
розмір кадру: 1920х1080
бітрейт: 10 Мб/с
формат 3D: Half OverUnder / Вертикальна анаморфна стереопара
порядок ракурсів: лівий ракурс перший
Відео для перегляду на 3D обладнанні!

Аудіо # 1:
мова: українська
переклад: професійний дубльований
кодек: 5.1
бітрейт: 384 кб/с

Аудіо # 2:
мова: англійська
переклад: оригінал
кодек: 5.1
бітрейт: 640 кб/с

Субтитри:
мова: англійська
тип: програмні (м'які)
формат: *.srt
Info
Код:
General
Complete name                            : Onward (2020) 1080p - 3D-Video [ukr, eng] [Video_Hurtom & Ash61].
Format                                   :
Format version                           : Version 4
File size                                : 7.88 GiB
Duration                                 : 1 h 42 min
Overall bit rate                         : 11.0 Mb/s
Movie name                               : Уперед / Onward (2020)
Encoded date                             : UTC 2020-06-11 20:53:57
Writing application                      : v30.1.0 ('Forever And More') 64-bit
Writing library                          : libebml v1.3.6 + v1.4.9
Cover                                    : Yes
Attachments                              : cover.jpg

Video
ID                                       : 1
Format                                   : AVC
Format/Info                              : Advanced Video Codec
Format profile                           : [email protected]
Format settings                          : CABAC / 4 Ref Frames
Format settings, CABAC                   : Yes
Format settings, RefFrames               : 4 frames
Codec ID                                 : V_MPEG4/ISO/AVC
Duration                                 : 1 h 42 min
Bit rate                                 : 10 000 kb/s
Width                                    : 1 920 pixels
Height                                   : 1 080 pixels
Display aspect ratio                     : 16:9
Frame rate mode                          : Constant
Frame rate                               : 23.976 (24000/1001) FPS
Color space                              : YUV
Chroma subsampling                       : 4:2:0
Bit depth                                : 8 bits
Scan type                                : Progressive
Bits/(Pixel*Frame)                       : 0.201
Stream size                              : 7.15 GiB (91%)
Title                                    : by Ash61
Writing library                          : core 146 r2538 121396c
Encoding settings                        : cabac=1 / ref=4 / deblock=1:-3:-3 / analyse=0x3:0x113 / me=umh / subme=10 / psy=1 / psy_rd=1.00:0.00 / mixed_ref=1 / me_range=32 / chroma_me=1 / trellis=2 / 8x8dct=1 / cqm=0 / deadzone=21,11 / fast_pskip=0 / chroma_qp_offset=-2 / threads=12 / lookahead_threads=2 / sliced_threads=0 / nr=0 / decimate=0 / interlaced=0 / bluray_compat=0 / constrained_intra=0 / bframes=9 / b_pyramid=2 / b_adapt=2 / b_bias=0 / direct=3 / weightb=1 / open_gop=0 / weightp=2 / keyint=250 / keyint_min=23 / scenecut=40 / intra_refresh=0 / rc_lookahead=60 / rc=2pass / mbtree=0 / bitrate=10000 / ratetol=1.0 / qcomp=0.70 / qpmin=0 / qpmax=69 / qpstep=4 / cplxblur=20.0 / qblur=0.5 / vbv_maxrate=40000 / vbv_bufsize=30000 / nal_hrd=none / filler=0 / frame-packing=4 / ip_ratio=1.40 / pb_ratio=1.30 / aq=1:0.70
Language                                 : English
Default                                  : Yes
Forced                                   : No

Audio #1
ID                                       : 2
Format                                   : AC-3
Format/Info                              : Audio Coding 3
Commercial name                          : Dolby Digital
Codec ID                                 : A_AC3
Duration                                 : 1 h 42 min
Bit rate mode                            : Constant
Bit rate                                 : 384 kb/s
Channel(s)                               : 6 channels
Channel layout                           : L R C LFE Ls Rs
Sampling rate                            : 48.0 kHz
Frame rate                               : 31.250 FPS (1536 SPF)
Bit depth                                : 16 bits
Compression mode                         : Lossy
Stream size                              : 281 MiB (3%)
Title                                    : 5.1 | 384
Language                                 : Ukrainian
Service kind                             : Complete Main
Default                                  : Yes
Forced                                   : No

Audio #2
ID                                       : 3
Format                                   : AC-3
Format/Info                              : Audio Coding 3
Commercial name                          : Dolby Digital
Codec ID                                 : A_AC3
Duration                                 : 1 h 42 min
Bit rate mode                            : Constant
Bit rate                                 : 640 kb/s
Channel(s)                               : 6 channels
Channel layout                           : L R C LFE Ls Rs
Sampling rate                            : 48.0 kHz
Frame rate                               : 31.250 FPS (1536 SPF)
Bit depth                                : 16 bits
Compression mode                         : Lossy
Stream size                              : 469 MiB (6%)
Title                                    : 5.1 | 640
Language                                 : English
Service kind                             : Complete Main
Default                                  : No
Forced                                   : No

Text
ID                                       : 4
Format                                   : UTF-8
Codec ID                                 : S_TEXT/UTF8
Codec ID/Info                            : UTF-8 Plain Text
Duration                                 : 1 h 41 min
Bit rate                                 : 73 b/s
Count of elements                        : 1904
Stream size                              : 54.6 KiB (0%)
Title                                    : SDH
Language                                 : English
Default                                  : No
Forced                                   : No

Menu
00:00:00.000                             : : 1. Prologue
00:02:30.024                             : : 2. Chaotic House
00:07:06.384                             : : 3. Dad's Legacy
00:08:14.326                             : : 4. School Fail
00:12:45.014                             : : 5. Tape Recorder
00:14:53.725                             : : 6. The Gift
00:19:21.034                             : : 7. Conjuring Dad
00:23:46.048                             : : 8. Off We Go
00:25:34.740                             : : 9. Mom Finds Note
00:26:11.109                             : : 10. Loosen Up
00:27:25.434                             : : 11. Manticore's Tavern
00:30:02.133                             : : 12. Fallen Idol
00:32:49.133                             : : 13. The Plan
00:34:43.621                             : : 14. Mom and Manticore
00:36:40.780                             : : 15. Bigger Man
00:40:41.980                             : : 16. Gas Station
00:42:48.731                             : : 17. The Curse
00:44:02.139                             : : 18. Sprite Insult
00:45:41.112                             : : 19. Driving Test
00:47:49.157                             : : 20. Honesty
00:52:01.367                             : : 21. Dance Fight
00:55:12.141                             : : 22. Pawn Shop
00:57:23.938                             : : 23. Trust Bridge
01:02:23.322                             : : 24. Change of Plans
01:04:02.963                             : : 25. Sacrifice
01:07:13.070                             : : 26. Following Ravens
01:08:49.039                             : : 27. Underground
01:10:06.158                             : : 28. To the Skies
01:11:12.266                             : : 29. Reward
01:13:13.054                             : : 30. Working Together
01:15:58.720                             : : 31. Lowest Low
01:17:37.025                             : : 32. Father Figure
01:20:26.319                             : : 33. Dragon High
01:25:01.261                             : : 34. Master Wizard
01:26:59.587                             : : 35. Meeting Dad
01:30:10.779                             : : 36. Epilogue
01:32:51.898                             : : 37. Credits
Скріншоти



Джерело:
Особиста оцінка: 0 - не дивився


 Трекер:    Зареєстрований   

Завантажити / скачати мультфільм українською



відео для новачків



 Зареєстрований:   2020-06-12 00:18
 Розмір:   7.88 GB 
 Оцінка мультфільму:   6.2/10 (Голосів: 6)
   
Інші релізи
   Уперед / Onward (2020) 1080p H.265 Ukr/Eng | Sub Eng -Star-Lord-  50 / 1   6.21 GB   2020-06-16 22:48 
   Уперед / Onward (2020) 720p Ukr/Eng | Sub Eng staf777  110 / 1   3.59 GB   2020-06-13 08:34 
   Уперед / Onward (2020) 1080p Ukr/Eng | Sub Eng staf777  114 / 3   7.8 GB   2020-06-12 10:57 
   Уперед / Onward (2020) Ukr/Eng antik_2008  187 / 3   1.98 GB   2020-06-12 01:27 
   Уперед / Onward (2020) Remux 1080p Ukr/Eng | Sub Eng antik_2008  38 / 1   22.47 GB   2020-06-12 00:29 
   Уперед / Onward (2020) UHD Remux 4K 2160p Ukr/Eng | Sub Eng antik_2008  28 / 1   34.59 GB   2020-06-12 00:18 
   Уперед / Onward (2020) AVC Ukr/Eng | Sub Eng 11FrYkT  302 / 2   1.94 GB   2020-06-11 19:53 
Kibersasha 
Новенький


З нами з: 20.12.10
Востаннє: 11.07.20
Повідомлень: 5

2020-07-11 20:14  
В наш час люди вже не цінують 3Д як раніше
Дякую!

Ваш часовий пояс: GMT + 2 Години

Нова тема   Відповісти