Темний спадок / Inheritance (2020) 1080p Eng | sub Ukr/Eng

Нові коментарі

Нова тема   Відповісти
Автор Повідомлення
Anonymous 







2020-06-11 12:10  
Темний спадок / Inheritance (2020) 1080p Eng | sub Ukr/Eng

Темний спадок / Inheritance (2020) 1080p Eng | sub Ukr/Eng
Оригінальні постери:




Жанр: трилер, драма, детектив
Країна: США



Кінокомпанія: Vertical Entertainment, Highland Film Group, Ingenious Media, Southpaw Entertainment, White Comet Films
Режисер: Вон Стайн / Vaughn Stein
Актори: Лілі Коллінз / Lily Collins, Саймон Пегг / Simon Pegg, Конні Нільсен / Connie Nielsen, Чейз Кроуфорд / Chace Crawford, Майкл Біч / Michael Beach, Маркі Річардсон / Marque Richardson, Патрік Варбертон / Patrick Warburton та інші

Сюжет:
Патріарх багатої і впливової сім'ї раптово йде з життя, залишаючи свою дружину і дочку з шокуючою таємною спадщиною, яка загрожує зруйнувати їхні життя.


Тривалість: 01:51:16
Якість: 1080p [Amazon]
Відео:
кодек:
розмір кадру: 1920х1080
бітрейт: 5151 кб/с

Аудіо:
мова: англійська
переклад: оригінал
кодек: 5.1
бітрейт: 448 кб/с

Субтитри # 1:
мова: українська
тип: програмні (м'які)
формат: *.srt
переклад: офіційний

Субтитри # 2-3:
мова: англійська (повні, SDH)
тип: програмні (м'які)
формат: *.srt
Info
Код:
Complete name               : Inheritance (2020) [Eng sub.Ukr,Eng] 1080p AMZN [Hurtom].
Format                      :
Format version              : Version 4
File size                   : 4.35 GiB
Duration                    : 1 h 51 min
Overall bit rate            : 5 602 kb/s
Movie name                  : Темний спадок / Inheritance (2020) [Eng sub.Ukr,Eng] 1080p AMZN [Hurtom]
Encoded date                : UTC 2020-06-11 11:32:21
Writing application         : v47.0.0 ('Black Flag') 64-bit
Writing library             : libebml v1.3.10 + v1.5.2
Cover                       : Yes
Attachments                 : cover.jpg

Video
ID                          : 1
Format                      : AVC
Format/Info                 : Advanced Video Codec
Format profile              : [email protected]
Format settings             : CABAC / 4 Ref Frames
Format settings, CABAC      : Yes
Format settings, Reference  : 4 frames
Codec ID                    : V_MPEG4/ISO/AVC
Duration                    : 1 h 51 min
Bit rate mode               : Constant
Bit rate                    : 5 151 kb/s
Nominal bit rate            : 10 000 kb/s
Width                       : 1 920 pixels
Height                      : 1 080 pixels
Display aspect ratio        : 16:9
Frame rate mode             : Constant
Frame rate                  : 23.976 (24000/1001) FPS
Color space                 : YUV
Chroma subsampling          : 4:2:0
Bit depth                   : 8 bits
Scan type                   : Progressive
Bits/(Pixel*Frame)          : 0.104
Stream size                 : 4.00 GiB (92%)
Title                       : Темний спадок / Inheritance (2020) 1080p [AMZN, NTG]
Language                    : English
Default                     : Yes
Forced                      : No
Color range                 : Limited
Color primaries             : BT.709
Transfer characteristics    : BT.709
Matrix coefficients         : BT.709

Audio
ID                          : 2
Format                      : AC-3
Format/Info                 : Audio Coding 3
Commercial name             : Dolby Digital
Codec ID                    : A_AC3
Duration                    : 1 h 51 min
Bit rate mode               : Constant
Bit rate                    : 448 kb/s
Channel(s)                  : 6 channels
Channel layout              : L R C LFE Ls Rs
Sampling rate               : 48.0 kHz
Frame rate                  : 31.250 FPS (1536 SPF)
Compression mode            : Lossy
Stream size                 : 357 MiB (8%)
Language                    : English
Service kind                : Complete Main
Default                     : Yes
Forced                      : No

Text #1
ID                          : 3
Format                      : UTF-8
Codec ID                    : S_TEXT/UTF8
Codec ID/Info               : UTF-8 Plain Text
Duration                    : 1 h 47 min
Bit rate                    : 85 b/s
Count of elements           : 1242
Stream size                 : 67.0 KiB (0%)
Title                       : Ukr Full [Official]
Language                    : Ukrainian
Default                     : Yes
Forced                      : Yes

Text #2
ID                          : 4
Format                      : UTF-8
Codec ID                    : S_TEXT/UTF8
Codec ID/Info               : UTF-8 Plain Text
Duration                    : 1 h 42 min
Bit rate                    : 55 b/s
Count of elements           : 1380
Stream size                 : 41.3 KiB (0%)
Title                       : Eng Full
Language                    : English
Default                     : No
Forced                      : No

Text #3
ID                          : 5
Format                      : UTF-8
Codec ID                    : S_TEXT/UTF8
Codec ID/Info               : UTF-8 Plain Text
Duration                    : 1 h 47 min
Bit rate                    : 54 b/s
Count of elements           : 1503
Stream size                 : 43.1 KiB (0%)
Title                       : Eng SDH
Language                    : English
Default                     : No
Forced                      : No




Джерело: &
Подяка за надані субтитри п. sub.Trader (subscene).


 Трекер:    Зареєстрований   

Завантажити / скачати фільм українською



відео для новачків



 Зареєстрований:   2020-06-11 16:55
 Розмір:   4.35 GB 
 Оцінка фільму:   7.8/10 (Голосів: 6)
 ЗАЛИШАЙТЕСЬ ЯКОМОГА ДОВШЕ НА РОЗДАЧІ! ЗАВАНТАЖИВ САМ - ДАЙ ЗАВАНТАЖИТИ ІНШИМ!
   
bot 
робот


З нами з: 30.09.07
Востаннє: 26.05.05
Повідомлень: 25031

2020-06-11 16:55  
Тему перенесено з Анонси релізів до форуму Фільми


igor911

killer2015 
Свій


З нами з: 30.01.15
Востаннє: 10.07.20
Повідомлень: 87

2020-06-11 19:38  
Дякую.


killer2015 
Свій


З нами з: 30.01.15
Востаннє: 10.07.20
Повідомлень: 87

2020-06-12 14:49  
Таке собі... я б сказав би кіно на один раз. Цікава історія, та до напруженого триллера не дотягує. Цілком відповідає рейтингу IMDB.
pavlo-kyiv 
Частий відвідувач


З нами з: 01.05.16
Востаннє: 10.07.20
Повідомлень: 35

2020-07-09 14:33  
Справляє враження...
Ваш часовий пояс: GMT + 2 Години

Нова тема   Відповісти