За бортом / Overboard (1987) 1080p H.265 3xUkr/Eng | Sub Eng

Нові коментарі

Нова тема   Відповісти
Останній раз роздавалося Barbaroid (2020-09-28)
Автор Повідомлення
Anonymous 







2020-06-11 09:40  
За бортом / Overboard (1987) 1080p H.265 3xUkr/Eng | Sub Eng

За бортом / Overboard (1987) 1080p H.265 3xUkr/Eng | Sub Eng


Жанр: комедія, мелодрама
Країна: США
Кінокомпанія: Hawn / Sylbert Movie Company, Metro-Goldwyn-Mayer (MGM), Star Partners
Режисер: Гарі Маршал / Garry Marshall
Актори: Ґолді Гоун / Goldie Hawn, Курт Расел / Kurt Russell, Едвард Германн / Edward Herrmann, Кетерін Гелмонд / Katherine Helmond, Майкл Хогерті / Mike Hagerty, Роді МакДавелл / Roddy McDowall та інші

Сюжет:
Джоанна Стейтон - владна, зарозуміла й непоступлива дружина самовпевненого власника яхти. Коли їх посудина зупиняється для ремонту у невеличкому містечку, сварлива й химерна Джоанна наймає теслю Діна Проффітта, щоб той змайстрував їй нову шафу. Але замість платні за роботу Діна жбурнули з яхти, тому що Джоанна ніколи нічим не буває задоволена.
Але цього разу її фірмові вихиляси закінчуються тим, що вона падає за борт і геть втрачає пам'ять. А Дін тим часом здійснює неперевершений план помсти: він забирає Джоанну до себе, дає їй нове ім'я Енн та називає своєю дружиною і матір'ю своїх чотирьох неслухняних синів...

Тривалість: 01:52:10
Якість:

Відео:
кодек: H.265 (HEVC)
розмір кадру: 1920 x 1040
бітрейт: 10 951 кб/с
бітова глибина: 10 біт

Увага! Перед завантаженням переконайтесь, що ваш пристрій відтворення (та/або ПЗ) підтримує H.265 (HEVC)

Аудіо # 1:
мова: українська
переклад: професійний дубльований
кодек: AC-3 2.0
бітрейт: 192 кб/с

Аудіо # 2:
мова: українська
переклад: багатоголосий закадровий
кодек: AC-3 2.0
бітрейт: 224 кб/с

Аудіо # 3:
мова: українська
переклад: багатоголосий закадровий | Так Треба Продакшн (ранній варіант, трансляція невідома)
кодек: AC-3 2.0
бітрейт: 224 кб/с

Аудіо # 4:
мова: англійська
переклад: оригінал
кодек: 2.0
бітрейт: 1510 кб/с

Субтитри # 1: (Full)
мова: англійська
тип: програмні (м'які)
формат: *.srt


Info
Код:
General
Unique ID                                : 130125992125253660493677241650413764028 (0x61E55ABF0D25C745BB33301C1516FDBC)
Complete name                            : Overboard (1987) 1080p H.265 [3xUKR_ENG] [Hurtom].
Format                                   :
Format version                           : Version 4
File size                                : 10.3 GiB
Duration                                 : 1 h 52 min
Overall bit rate                         : 13.1 Mb/s
Movie name                               : За бортом / Overboard (1987)
Encoded date                             : UTC 2020-06-11 05:58:52
Writing application                      : v20.0.0 ('I Am The Sun') 64-bit
Writing library                          : libebml v1.3.5 + v1.4.8
Cover                                    : Yes
Attachments                              : cover.jpg

Video
ID                                       : 1
Format                                   : HEVC
Format/Info                              : High Efficiency Video Coding
Format profile                           : Main [email protected]@High
Codec ID                                 : V_MPEGH/ISO/HEVC
Duration                                 : 1 h 52 min
Bit rate                                 : 11.0 Mb/s
Width                                    : 1 920 pixels
Height                                   : 1 040 pixels
Display aspect ratio                     : 1.85:1
Frame rate mode                          : Constant
Frame rate                               : 23.976 (24000/1001) FPS
Color space                              : YUV
Chroma subsampling                       : 4:2:0
Bit depth                                : 10 bits
Bits/(Pixel*Frame)                       : 0.229
Stream size                              : 8.58 GiB (84%)
Title                                    : За бортом / Overboard (1987)
Writing library                          : x265 3.3+2-gbe2d82093:[Windows][GCC 10.0.1][64 bit] 10bit
Encoding settings                        : cpuid=1111039 / frame-threads=4 / numa-pools=16 / wpp / no-pmode / no-pme / no-psnr / no-ssim / log-level=2 / input-csp=1 / input-res=1920x1040 / interlace=0 / total-frames=161371 / level-idc=41 / high-tier=1 / uhd-bd=0 / ref=5 / no-allow-non-conformance / no-repeat-headers / annexb / no-aud / no-hrd / info / hash=0 / no-temporal-layers / open-gop / min-keyint=24 / keyint=240 / gop-lookahead=0 / bframes=10 / b-adapt=2 / b-pyramid / bframe-bias=0 / rc-lookahead=60 / lookahead-slices=1 / scenecut=40 / hist-scenecut=0 / radl=0 / no-splice / no-intra-refresh / ctu=32 / min-cu-size=8 / rect / amp / max-tu-size=32 / tu-inter-depth=4 / tu-intra-depth=4 / limit-tu=1 / rdoq-level=2 / dynamic-rd=0.00 / no-ssim-rd / signhide / no-tskip / nr-intra=0 / nr-inter=0 / no-constrained-intra / no-strong-intra-smoothing / max-merge=5 / limit-refs=3 / limit-modes / me=3 / subme=7 / merange=57 / temporal-mvp / no-frame-dup / hme / Level / merange / L0,L1,L2=16,32,57 / weightp / weightb / no-analyze-src-pics / deblock=-2:-2 / no-sao / no-sao-non-deblock / rd=6 / selective-sao=0 / no-early-skip / rskip / rskip-edge-threshold=0.050000 / no-fast-intra / no-tskip-fast / no-cu-lossless / b-intra / no-splitrd-skip / rdpenalty=0 / psy-rd=1.50 / psy-rdoq=0.90 / no-rd-refine / no-lossless / cbqpoffs=0 / crqpoffs=0 / rc=crf / crf=20.0 / qcomp=0.70 / qpstep=4 / stats-write=0 / stats-read=0 / vbv-maxrate=50000 / vbv-bufsize=50000 / vbv-init=0.9 / crf-max=0.0 / crf-min=0.0 / ipratio=1.40 / pbratio=1.30 / aq-mode=1 / aq-strength=1.00 / no-cutree / zone-count=0 / no-strict-cbr / qg-size=32 / no-rc-grain / qpmax=69 / qpmin=0 / no-const-vbv / sar=1 / overscan=0 / videoformat=5 / range=0 / colorprim=1 / transfer=1 / colormatrix=1 / chromaloc=0 / display-window=0 / cll=0,0 / min-luma=0 / max-luma=1023 / log2-max-poc-lsb=8 / vui-timing-info / vui-hrd-info / slices=1 / no-opt-qp-pps / no-opt-ref-list-length-pps / no-multi-pass-opt-rps / scenecut-bias=0.05 / hist-threshold=0.01 / no-opt-cu-delta-qp / no-aq-motion / no-hdr10 / no-hdr10-opt / no-dhdr10-opt / no-idr-recovery-sei / analysis-reuse-level=0 / analysis-save-reuse-level=0 / analysis-load-reuse-level=0 / scale-factor=0 / refine-intra=0 / refine-inter=0 / refine-mv=1 / refine-ctu-distortion=0 / no-limit-sao / ctu-info=0 / no-lowpass-dct / refine-analysis-type=0 / copy-pic=1 / max-ausize-factor=1.0 / no-dynamic-refine / no-single-sei / no-hevc-aq / no-svt / no-field / qp-adaptation-range=1.00 / no-scenecut-aware-qpconformance-window-offsets / right=0 / bottom=0
Language                                 : English
Default                                  : Yes
Forced                                   : No
Color range                              : Limited
Color primaries                          : BT.709
Transfer characteristics                 : BT.709
Matrix coefficients                      : BT.709

Audio #1
ID                                       : 2
Format                                   : AC-3
Format/Info                              : Audio Coding 3
Commercial name                          : Dolby Digital
Codec ID                                 : A_AC3
Duration                                 : 1 h 52 min
Bit rate mode                            : Constant
Bit rate                                 : 192 kb/s
Channel(s)                               : 2 channels
Channel layout                           : L R
Sampling rate                            : 48.0 kHz
Frame rate                               : 31.250 FPS (1536 SPF)
Compression mode                         : Lossy
Stream size                              : 154 MiB (1%)
Title                                    : / 2.0 Ch / 192 kbps / ПД / TET
Language                                 : Ukrainian
Service kind                             : Complete Main
Default                                  : Yes
Forced                                   : Yes

Audio #2
ID                                       : 3
Format                                   : AC-3
Format/Info                              : Audio Coding 3
Commercial name                          : Dolby Digital
Codec ID                                 : A_AC3
Duration                                 : 1 h 52 min
Bit rate mode                            : Constant
Bit rate                                 : 224 kb/s
Channel(s)                               : 2 channels
Channel layout                           : L R
Sampling rate                            : 48.0 kHz
Frame rate                               : 31.250 FPS (1536 SPF)
Compression mode                         : Lossy
Stream size                              : 180 MiB (2%)
Title                                    : / 2.0 Ch / 224 kbps / БЗ / ICTV
Language                                 : Ukrainian
Service kind                             : Complete Main
Default                                  : No
Forced                                   : No

Audio #3
ID                                       : 4
Format                                   : AC-3
Format/Info                              : Audio Coding 3
Commercial name                          : Dolby Digital
Codec ID                                 : A_AC3
Duration                                 : 1 h 52 min
Bit rate mode                            : Constant
Bit rate                                 : 224 kb/s
Channel(s)                               : 2 channels
Channel layout                           : L R
Sampling rate                            : 48.0 kHz
Frame rate                               : 31.250 FPS (1536 SPF)
Compression mode                         : Lossy
Stream size                              : 180 MiB (2%)
Title                                    : / 2.0 Ch / 224 kbps / БЗ / Так Треба Продакшн
Language                                 : Ukrainian
Service kind                             : Complete Main
Default                                  : No
Forced                                   : No

Audio #4
ID                                       : 5
Format                                   :
Format/Info                              : Digital Theater Systems
Codec ID                                 : A_DTS
Duration                                 : 1 h 52 min
Bit rate mode                            : Constant
Bit rate                                 : 1 509 kb/s
Channel(s)                               : 2 channels
Channel layout                           : L R
Sampling rate                            : 48.0 kHz
Frame rate                               : 93.750 FPS (512 SPF)
Bit depth                                : 24 bits
Compression mode                         : Lossy
Stream size                              : 1.18 GiB (12%)
Title                                    : / 5.1 Ch / 1509 kbps / Original
Language                                 : English
Default                                  : No
Forced                                   : No

Text
ID                                       : 6
Format                                   : UTF-8
Codec ID                                 : S_TEXT/UTF8
Codec ID/Info                            : UTF-8 Plain Text
Duration                                 : 1 h 48 min
Bit rate                                 : 73 b/s
Count of elements                        : 1455
Stream size                              : 58.7 KiB (0%)
Title                                    : Full
Language                                 : English
Default                                  : No
Forced                                   : No

Menu
00:00:00.000                             : en:Logo/Main Title
00:03:27.999                             : en:Meeting Joanna
00:08:07.236                             : en:Dean Gets Fired
00:12:45.848                             : en:Of Mummies & Monsters
00:15:35.684                             : en:Overboard...
00:17:37.264                             : en:...And Ill-Mannered
00:21:05.138                             : en:The Bitch!
00:22:50.160                             : en:...And The Pitch
00:26:45.937                             : en:I Just Ate A Bug!
00:28:22.867                             : en:Meeting The Monsters
00:33:15.451                             : en:Burn Victim
00:35:51.941                             : en:I'm A Short, Fat Slut
00:38:28.806                             : en:The Dream
00:41:42.917                             : en:Scores Of Chores
00:45:27.391                             : en:Finding A Memory
00:47:31.807                             : en:Photographic Evidence
00:49:44.231                             : en:Payback Is Swell
00:54:49.577                             : en:Anal Compulsive Hun
00:58:58.368                             : en:Parent-To-Parent Talk
01:04:32.827                             : en:French & Fertilizer
01:08:01.994                             : en:The Wonders Of Golf
01:10:20.883                             : en:Dean's Confession
01:13:43.168                             : en:Arturo & Katarina
01:19:13.790                             : en:A Snag In The Wool
01:24:26.686                             : en:The Grand Opening
01:26:17.338                             : en:Grant Returns
01:30:00.645                             : en:Leaving Elk Cove
01:33:16.257                             : en:Almost Fully Recovered
01:37:15.454                             : en:Andrew's Insight
01:41:06.894                             : en:You Left Me There
01:43:24.740                             : en:Arturo & Katarina II
01:49:41.324                             : en:End Credits
01:52:10.473                             : en:The End
Світлини




Джерело: &
Особиста оцінка: 0 - не дивився


Срібний реліз (на рейтинг впливає 50% завантаженого)
 Трекер:    Зареєстрований   

Завантажити / скачати фільм українською



відео для новачків



 Зареєстрований:   2020-06-11 09:40
 Розмір:   10.27 GB 
 Оцінка фільму:   10/10 (Голосів: 7)
   
Інші релізи
   За бортом / Overboard (1987) AVC 3xUkr/Eng | Sub Eng Sando7  6 / 0   2.62 GB   2019-10-29 21:04 
   За бортом / Overboard (1987) 720p 3xUkr/Eng | Sub Eng igor911  3 / 0   6.6 GB   2019-02-01 21:18 
   За бортом / Overboard (1987) Remux 1080p 3xUkr/Eng | Sub Eng Alex60  3 / 0   30.05 GB   2015-09-05 20:29 
   За бортом / Overboard (1987) 1080p 3xUkr/Eng | Sub Eng Alex60  1 / 0   12.67 GB   2015-09-05 20:17 
   За бортом / Overboard (1987) 3xUkr/Eng | Sub Eng omm  11 / 2   1.95 GB   2015-03-01 18:36 
Ваш часовий пояс: GMT + 2 Години

Нова тема   Відповісти