Життя комах (Пригоди Флiка) / A Bug's Life (1998) 1080p H.265 2xUkr/Eng | Sub Ukr/Eng

Нові коментарі

Нова тема   Відповісти
Автор Повідомлення
Anonymous 







2020-06-10 23:18  
Життя комах (Пригоди Флiка) / A Bug's Life (1998) 1080p H.265 2xUkr/Eng | Sub Ukr/Eng

Життя комах (Пригоди Флiка) / A Bug's Life (1998) 1080p H.265 2xUkr/Eng | Sub Ukr/Eng


Жанр: анімація, пригоди, комедія
Країна: США
Кінокомпанія: Pixar Animation Studios, Walt Disney Pictures
Режисер: Джон Лассетер / John Lasseter, Ендрю Стентон / Andrew Stanton
Актори: Дейв Фоулі / Dave Foley, Кевін Спейсі / Kevin Spacey, Джулія Луїс-Дрейфус / Julia Louis-Dreyfus, Хайден Панеттьєрі / Hayden Panettiere, Філліс Диллер / Phyllis Diller, Річард Кайнд / Richard Kind, Девід Хайд Пірс / David Hyde Pierce, Джо Ренфт / Joe Ranft, Деніс Лірі / Denis Leary, Джонатан Харріс / Jonathan Harris, Медлін Кан / Madeline Kahn, Боні Хант / Bonnie Hunt, Майкл МакШейн / Michael McShane, Джон Разенбенг / John Ratzenberger, Бред Гарет / Brad Garrett, та інші.

Сюжет:
Колонія мурах, що живе на невеликому острові, зазнає постійних нападів банди сарани, що вимагає в них їстівні припаси. Одного разу, коли чергова партія харчів була вже зібрана і очікували прибуття банди, мураха на ім'я Флік, винахідник-фантазер, при проведенні випробувань механічної прибиральної машини, випадково зіштовхує зібрані харчі в струмок. Саранча в результаті чого збільшила данину. Флік вирішив протистояти цьому...

Тривалість: 01:34:53
Якість:

Відео:
кодек: H.265 (HEVC)
розмір кадру: 1920 x 818
бітрейт: 5 973 кб/с
бітова глибина: 10 біт

Увага! Перед завантаженням переконайтесь, що ваш пристрій відтворення (та/або ПЗ) підтримує H.265 (HEVC)

Аудіо # 1:
мова: українська
переклад: професійний дубльований | Студія LeDoyen
кодек: AC-3 2.0
бітрейт: 192 кб/с

Аудіо # 2:
мова: українська
переклад: багатоголосий закадровий | Diatrema
кодек: AC-3 5.1
бітрейт: 448 кб/с

Аудіо # 3:
мова: англійська
переклад: оригінал
кодек: AC-3 5.1
бітрейт: 640 кб/с

Субтитри # 1: (Full)
мова: українська
тип: програмні (м'які)
формат: *.srt

Субтитри # 2: (Full)
мова: англійська
тип: програмні (м'які)
формат: *.srt


Info
Код:
General
Unique ID                                : 176799452651552773347535446408401392830 (0x850256042E376F9F6C0C31BD26B214BE)
Complete name                            : A Bug's Life (1998) 1080p H.265 [2xUKR_ENG] [Hurtom].
Format                                   :
Format version                           : Version 4
File size                                : 4.81 GiB
Duration                                 : 1 h 34 min
Overall bit rate                         : 7 257 kb/s
Movie name                               : Життя комах (Пригоди Флiка) / A Bug's Life (1998)
Encoded date                             : UTC 2020-06-10 21:01:33
Writing application                      : v20.0.0 ('I Am The Sun') 64-bit
Writing library                          : libebml v1.3.5 + v1.4.8
Cover                                    : Yes
Attachments                              : cover.jpg

Video
ID                                       : 1
Format                                   : HEVC
Format/Info                              : High Efficiency Video Coding
Format profile                           : Main [email protected]@High
Codec ID                                 : V_MPEGH/ISO/HEVC
Duration                                 : 1 h 34 min
Bit rate                                 : 5 973 kb/s
Width                                    : 1 920 pixels
Height                                   : 818 pixels
Display aspect ratio                     : 2.35:1
Frame rate mode                          : Constant
Frame rate                               : 23.976 (23976/1000) FPS
Original frame rate                      : 23.976 (24000/1001) FPS
Color space                              : YUV
Chroma subsampling                       : 4:2:0
Bit depth                                : 10 bits
Bits/(Pixel*Frame)                       : 0.159
Stream size                              : 3.96 GiB (82%)
Title                                    : Життя комах (Пригоди Флiка) / A Bug's Life (1998)
Writing library                          : x265 3.3+1-g554c887ac:[Windows][MSVC 1924][64 bit] 10bit
Encoding settings                        : cpuid=1111039 / frame-threads=3 / numa-pools=12 / wpp / no-pmode / no-pme / no-psnr / no-ssim / log-level=2 / input-csp=1 / input-res=1920x818 / interlace=0 / total-frames=127273 / level-idc=41 / high-tier=1 / uhd-bd=0 / ref=5 / no-allow-non-conformance / no-repeat-headers / annexb / no-aud / no-hrd / info / hash=0 / no-temporal-layers / open-gop / min-keyint=23 / keyint=240 / gop-lookahead=0 / bframes=10 / b-adapt=2 / b-pyramid / bframe-bias=0 / rc-lookahead=60 / lookahead-slices=4 / scenecut=40 / hist-scenecut=0 / radl=0 / no-splice / no-intra-refresh / ctu=32 / min-cu-size=8 / rect / amp / max-tu-size=32 / tu-inter-depth=4 / tu-intra-depth=4 / limit-tu=1 / rdoq-level=2 / dynamic-rd=0.00 / no-ssim-rd / signhide / no-tskip / nr-intra=0 / nr-inter=0 / no-constrained-intra / no-strong-intra-smoothing / max-merge=4 / limit-refs=2 / limit-modes / me=3 / subme=7 / merange=57 / temporal-mvp / no-frame-dup / no-hme / weightp / weightb / no-analyze-src-pics / deblock=-3:-3 / no-sao / no-sao-non-deblock / rd=6 / selective-sao=0 / no-early-skip / no-rskip / no-fast-intra / no-tskip-fast / no-cu-lossless / no-b-intra / no-splitrd-skip / rdpenalty=0 / psy-rd=2.00 / psy-rdoq=1.00 / no-rd-refine / no-lossless / cbqpoffs=0 / crqpoffs=0 / rc=crf / crf=19.0 / qcomp=0.60 / qpstep=4 / stats-write=0 / stats-read=0 / vbv-maxrate=50000 / vbv-bufsize=50000 / vbv-init=0.9 / crf-max=0.0 / crf-min=0.0 / ipratio=1.40 / pbratio=1.30 / aq-mode=1 / aq-strength=1.00 / no-cutree / zone-count=0 / no-strict-cbr / qg-size=32 / no-rc-grain / qpmax=69 / qpmin=0 / no-const-vbv / sar=1 / overscan=0 / videoformat=5 / range=0 / colorprim=1 / transfer=1 / colormatrix=1 / chromaloc=0 / display-window=0 / cll=0,0 / min-luma=0 / max-luma=1023 / log2-max-poc-lsb=8 / vui-timing-info / vui-hrd-info / slices=1 / no-opt-qp-pps / no-opt-ref-list-length-pps / no-multi-pass-opt-rps / scenecut-bias=0.05 / hist-threshold=0.01 / no-opt-cu-delta-qp / no-aq-motion / no-hdr10 / no-hdr10-opt / no-dhdr10-opt / no-idr-recovery-sei / analysis-reuse-level=0 / analysis-save-reuse-level=0 / analysis-load-reuse-level=0 / scale-factor=0 / refine-intra=0 / refine-inter=0 / refine-mv=1 / refine-ctu-distortion=0 / no-limit-sao / ctu-info=0 / no-lowpass-dct / refine-analysis-type=0 / copy-pic=1 / max-ausize-factor=1.0 / no-dynamic-refine / no-single-sei / no-hevc-aq / no-svt / no-field / qp-adaptation-range=1.00 / no-scenecut-aware-qpconformance-window-offsets / right=0 / bottom=0
Default                                  : Yes
Forced                                   : No
Color range                              : Limited
Color primaries                          : BT.709
Transfer characteristics                 : BT.709
Matrix coefficients                      : BT.709

Audio #1
ID                                       : 2
Format                                   : AC-3
Format/Info                              : Audio Coding 3
Commercial name                          : Dolby Digital
Codec ID                                 : A_AC3
Duration                                 : 1 h 34 min
Bit rate mode                            : Constant
Bit rate                                 : 192 kb/s
Channel(s)                               : 2 channels
Channel layout                           : L R
Sampling rate                            : 48.0 kHz
Frame rate                               : 31.250 FPS (1536 SPF)
Compression mode                         : Lossy
Stream size                              : 130 MiB (3%)
Title                                    : / 2.0 Ch / 192 kbps / ПД / Студія LeDoyen
Language                                 : Ukrainian
Service kind                             : Complete Main
Default                                  : Yes
Forced                                   : Yes

Audio #2
ID                                       : 3
Format                                   : AC-3
Format/Info                              : Audio Coding 3
Commercial name                          : Dolby Digital
Codec ID                                 : A_AC3
Duration                                 : 1 h 34 min
Bit rate mode                            : Constant
Bit rate                                 : 448 kb/s
Channel(s)                               : 6 channels
Channel layout                           : L R C LFE Ls Rs
Sampling rate                            : 48.0 kHz
Frame rate                               : 31.250 FPS (1536 SPF)
Compression mode                         : Lossy
Stream size                              : 304 MiB (6%)
Title                                    : / 5.1 Ch / 448 kbps / БЗ / Diatrema
Language                                 : Ukrainian
Service kind                             : Complete Main
Default                                  : No
Forced                                   : No

Audio #3
ID                                       : 4
Format                                   : AC-3
Format/Info                              : Audio Coding 3
Commercial name                          : Dolby Digital
Codec ID                                 : A_AC3
Duration                                 : 1 h 34 min
Bit rate mode                            : Constant
Bit rate                                 : 640 kb/s
Channel(s)                               : 6 channels
Channel layout                           : L R C LFE Ls Rs
Sampling rate                            : 48.0 kHz
Frame rate                               : 31.250 FPS (1536 SPF)
Compression mode                         : Lossy
Stream size                              : 434 MiB (9%)
Title                                    : / 5.1 Ch / 640 kbps / Original
Language                                 : English
Service kind                             : Complete Main
Default                                  : No
Forced                                   : No

Text #1
ID                                       : 5
Format                                   : UTF-8
Codec ID                                 : S_TEXT/UTF8
Codec ID/Info                            : UTF-8 Plain Text
Duration                                 : 1 h 32 min
Bit rate                                 : 111 b/s
Count of elements                        : 1356
Stream size                              : 75.8 KiB (0%)
Title                                    : Full
Language                                 : Ukrainian
Default                                  : Yes
Forced                                   : No

Text #2
ID                                       : 6
Format                                   : UTF-8
Codec ID                                 : S_TEXT/UTF8
Codec ID/Info                            : UTF-8 Plain Text
Duration                                 : 1 h 34 min
Bit rate                                 : 73 b/s
Count of elements                        : 1491
Stream size                              : 50.7 KiB (0%)
Title                                    : Full
Language                                 : English
Default                                  : No
Forced                                   : No

Menu
00:00:00.000                             : en:Main Titles
00:04:28.477                             : en:Flik's Invention
00:07:51.971                             : en:Red Alert
00:09:51.966                             : en:The Grasshoppers Arrive
00:15:18.626                             : en:On Trial
00:17:19.163                             : en:Leaving Ant Island
00:18:55.760                             : en:Flik's Flight
00:20:04.495                             : en:P. T. Flea's Circus
00:26:07.941                             : en:The City
00:27:48.917                             : en:Bug Bar
00:31:29.137                             : en:Flying Home
00:32:43.003                             : en:The Warriors Arrive
00:35:57.363                             : en:Official Welcome
00:39:42.213                             : en:"Squish Me Now"
00:41:26.609                             : en:A Bird Attacks
00:45:08.372                             : en:Francis the Hero
00:45:49.622                             : en:Atta's Apology
00:47:16.667                             : en:Flik's Plan
00:49:13.325                             : en:Building the Bird
00:52:50.626                             : en:Hopper's Hideout
00:56:35.976                             : en:The Celebration
00:58:49.192                             : en:P. T. Arrives
01:02:23.948                             : en:The Grasshoppers Return
01:04:26.988                             : en:To the Clubhouse
01:05:30.176                             : en:Dot Goes for Help
01:06:47.003                             : en:Turning Back
01:10:01.614                             : en:Grasshopper Occupation
01:10:49.078                             : en:Showtime
01:15:15.261                             : en:Flik's Bird Attacks
01:17:29.311                             : en:Flik vs. Hopper
01:20:00.295                             : en:Ant Battle
01:21:12.910                             : en:Rain
01:23:05.439                             : en:Hopper's Demise
01:24:15.926                             : en:Springtime
01:28:30.347                             : en:End Credits
01:29:55.932                             : en:Outtakes
Світлини




Джерело: &
Особиста оцінка: 0 - не дивився


Авторський реліз (завантажувати можна без реєстрації)
 Трекер:    Зареєстрований   

Завантажити / скачати мультфільм українською



відео для новачків



 Зареєстрований:   2020-06-10 23:18
 Розмір:   4.81 GB 
 Оцінка мультфільму:   9.8/10 (Голосів: 5)
   
Ваш часовий пояс: GMT + 2 Години

Нова тема   Відповісти