Пригоди Піноккіо / Pinocchio (2019) 720p Ukr/Ita | Sub Eng

Нові коментарі

Нова тема   Відповісти
Автор Повідомлення
Anonymous 







2020-06-10 19:43  
Пригоди Піноккіо / Pinocchio (2019) 720p Ukr/Ita | Sub Eng



Жанр: пригоди, сімейний, фентезі
Країна: Італія, Франція, Велика Британія



Кінокомпанія: Archimede, Rai Cinema, Le Pacte
Режисер: Маттео Гарроне
Актори: Роберто Беніньї, Рокко Папалео, Марина Вакт, Луіджи Пройєтті, Аліда Бальдарі Калабрія, Давід Маротта

Сюжет:
«Піноккіо» розповідає історію тесляра Джеппетто, який знаходить чарівне поліно і вирішує витесати з нього справжнього хлопчика. Він дає йому ім'я Піноккіо, але дерев'яний хлопчик виявляється таким непосидючим, що незабаром тікає з дому й відправляється в незабутні пригоди, де він зустріне нових друзів та ворогів, перш ніж возз'єднається зі своїм батьком.


Тривалість: 02:05:00
Якість: 720p

Відео:
кодек:
розмір кадру: 1280x536
бітрейт: 5565 кб/с

Аудіо # 1:
мова: українська
переклад: професійний дубльований
кодек: 5.1
бітрейт: 384 кб/с

Аудіо # 2:
мова: італійська
переклад: оригінал
кодек: 5.1
бітрейт: 640 кб/с

Субтитри:
мова: англійська
тип: програмні (м'які)
формат: *.srt
Скріншоти




Info
Код:

General
Complete name                            : Pinocchio (2019) 720p [UKR_ITA] [Hurtom].
Format                                   :
Format version                           : Version 4
File size                                : 5.76 GiB
Duration                                 : 2 h 4 min
Overall bit rate                         : 6 592 kb/s
Movie name                               : Пригоди Піноккіо / Pinocchio (2019)
Encoded date                             : UTC 2020-06-13 22:12:33
Writing application                      : v30.1.0 ('Forever And More') 64-bit
Writing library                          : libebml v1.3.6 + v1.4.9
Cover                                    : Yes
Attachments                              : cover.jpg

Video
ID                                       : 1
Format                                   : AVC
Format/Info                              : Advanced Video Codec
Format profile                           : [email protected]
Format settings                          : CABAC / 12 Ref Frames
Format settings, CABAC                   : Yes
Format settings, RefFrames               : 12 frames
Codec ID                                 : V_MPEG4/ISO/AVC
Duration                                 : 2 h 4 min
Bit rate                                 : 5 565 kb/s
Width                                    : 1 280 pixels
Height                                   : 536 pixels
Display aspect ratio                     : 2.40:1
Frame rate mode                          : Constant
Frame rate                               : 24.000 FPS
Color space                              : YUV
Chroma subsampling                       : 4:2:0
Bit depth                                : 8 bits
Scan type                                : Progressive
Bits/(Pixel*Frame)                       : 0.338
Stream size                              : 4.86 GiB (84%)
Title                                    : playHD
Writing library                          : core 144 r2525 40bb568
Encoding settings                        : cabac=1 / ref=12 / deblock=1:-3:-3 / analyse=0x3:0x133 / me=umh / subme=10 / psy=1 / psy_rd=1.00:0.00 / mixed_ref=1 / me_range=32 / chroma_me=1 / trellis=2 / 8x8dct=1 / cqm=0 / deadzone=21,11 / fast_pskip=0 / chroma_qp_offset=-2 / threads=12 / lookahead_threads=2 / sliced_threads=0 / nr=0 / decimate=0 / interlaced=0 / bluray_compat=0 / constrained_intra=0 / bframes=8 / b_pyramid=2 / b_adapt=2 / b_bias=0 / direct=3 / weightb=1 / open_gop=0 / weightp=2 / keyint=250 / keyint_min=24 / scenecut=40 / intra_refresh=0 / rc=crf / mbtree=0 / crf=13.6 / qcomp=0.60 / qpmin=0 / qpmax=69 / qpstep=4 / ip_ratio=1.40 / pb_ratio=1.30 / aq=3:0.85
Language                                 : English
Default                                  : Yes
Forced                                   : No

Audio #1
ID                                       : 2
Format                                   : AC-3
Format/Info                              : Audio Coding 3
Commercial name                          : Dolby Digital
Codec ID                                 : A_AC3
Duration                                 : 2 h 4 min
Bit rate mode                            : Constant
Bit rate                                 : 384 kb/s
Channel(s)                               : 6 channels
Channel layout                           : L R C LFE Ls Rs
Sampling rate                            : 48.0 kHz
Frame rate                               : 31.250 FPS (1536 SPF)
Bit depth                                : 16 bits
Compression mode                         : Lossy
Stream size                              : 343 MiB (6%)
Title                                    : 5.1 | 384
Language                                 : Ukrainian
Service kind                             : Complete Main
Default                                  : Yes
Forced                                   : No

Audio #2
ID                                       : 3
Format                                   : AC-3
Format/Info                              : Audio Coding 3
Commercial name                          : Dolby Digital
Codec ID                                 : A_AC3
Duration                                 : 2 h 4 min
Bit rate mode                            : Constant
Bit rate                                 : 640 kb/s
Channel(s)                               : 6 channels
Channel layout                           : L R C LFE Ls Rs
Sampling rate                            : 48.0 kHz
Frame rate                               : 31.250 FPS (1536 SPF)
Bit depth                                : 16 bits
Compression mode                         : Lossy
Stream size                              : 572 MiB (10%)
Title                                    : 5.1 | 640
Language                                 : Italian
Service kind                             : Complete Main
Default                                  : No
Forced                                   : No

Text
ID                                       : 4
Format                                   : UTF-8
Codec ID                                 : S_TEXT/UTF8
Codec ID/Info                            : UTF-8 Plain Text
Duration                                 : 1 h 54 min
Bit rate                                 : 49 b/s
Count of elements                        : 1298
Stream size                              : 41.7 KiB (0%)
Language                                 : English
Default                                  : No
Forced                                   : No

Menu
00:00:00.000                             : :Chapter 1
00:10:24.000                             : :Chapter 2
00:20:41.708                             : :Chapter 3
00:31:29.250                             : :Chapter 4
00:41:29.958                             : :Chapter 5
00:51:46.792                             : :Chapter 6
01:01:43.833                             : :Chapter 7
01:13:06.500                             : :Chapter 8
01:23:58.917                             : :Chapter 9
01:33:31.917                             : :Chapter 10
01:44:55.667                             : :Chapter 11
01:53:57.458                             : :Chapter 12
Джерело:
Особиста оцінка: 0 - не дивився


 Трекер:    Зареєстрований   

Завантажити / скачати фільм українською



відео для новачків



 Зареєстрований:   2020-06-14 13:38
 Розмір:   5.76 GB 
 Оцінка фільму:   9.1/10 (Голосів: 10)
   
Інші релізи
Anonymous 







2020-06-14 13:38  
Реліз готовий!
DeWitt_1912 
Свій


З нами з: 13.09.16
Востаннє: 25.09.20
Повідомлень: 129

2020-06-16 00:39  
Дякую за реліз, але... Подивився менше половини, вимкнув. Це щось страшне, буквально, хоррор. Це точно не казка для дітей.
waldi-hurtom 
VIP


З нами з: 07.10.12
Востаннє: 24.09.20
Повідомлень: 1177

2020-06-17 11:20  
На диво непоганий фільм. Як на мене, замало Італії, забагато (чомусь) Франції. Музика в першу чергу. Неаполітанські пісні пасували б краще за шансон. Їжа, одяг, тощо. Деякі гарні сцени з книги упущені. Вчитель педофоб сподобався. Цікаво, що краще чи гірше в школі - педофіл чи педофоб? Неня-слимак і тунець теж прикольно зроблені. Сучасні кліше де-не-де повлазили, невластиві Італії минулих століть, але не фатально. Можливо, це навіть привабить сучасних дітей, хто зна. Ну, а порівнювати з совдепівською буратиною, бездарно вкраденою альошею толстим, безглуздо. Хай совок вимирає! Фільм вийшов не гірше за книжку Піноккіо. Добротна робота, нудно не було. Але й не АХ! 7 з 10. Дякую за реліз!
sersach 
Новенький


З нами з: 26.08.12
Востаннє: 24.09.20
Повідомлень: 6

2020-06-21 19:30  
Чудова екранізація. Дух книги збережено. Хоча дійсно деякі цікаві історій з книги упущені
kotsjkyy 
Новенький


З нами з: 10.02.12
Востаннє: 14.09.20
Повідомлень: 11

2020-06-30 15:02  
справжній кошмар досі гидко згадувати ту рибу з лицем людини
qarty1 
VIP


З нами з: 01.11.09
Востаннє: 25.09.20
Повідомлень: 385

2020-08-19 21:43  
фільм точно не для дітей, жахи.
Ваш часовий пояс: GMT + 2 Години

Нова тема   Відповісти