Гол! / Strike (2018) 1080p Ukr/Eng | sub Ukr

Нові коментарі

Нова тема   Відповісти
Останній раз роздавалося jokerguitar (2021-03-06)
Автор Повідомлення
Anonymous 







2020-06-10 17:06  
Гол! / Strike (2018) 1080p Ukr/Eng | sub Ukr

Гол! / Strike (2018) 1080p Ukr/Eng | sub Ukr


Жанр: анімація, пригодницький, комедія
Країна: Велика Британія



Кінокомпанія: Gigglefish Animation Studios
Режисер: Тревор Гарді
Актори: Кен Стотт, Ліззі Уотерворт, Алекс Келлі, Наомі Макдональд, Том Тарнер, Дейв Маунтфілд, Бет Чалмерс та ін.

Сюжет:
Манго – молодий кріт, який ось-ось повинен вийти на роботу шахтарем, у копальню свого батька. Але Манго не дуже хоче працювати в шахті: він мріє стати професійним футболістом та зіграти у футбол за свою країну в Кубку Дикої Природи.


Тривалість: 01:40:20
Якість:
Відео:
кодек:
розмір кадру: 1920 х 1012
бітрейт: 5174 кб/с

Аудіо # 1:
мова: українська
переклад: багатоголосий закадровий
кодек: 2.0
бітрейт: 192 кб/с

Аудіо # 2:
мова: англійська
переклад: оригінал
кодек: 5.1
бітрейт: 384 кб/с

Джерело озвучення:
Arthouse Traffic

Субтитри:
мова: українська
тип: програмні (м'які)
формат: *.srt
Info
Код:
General
Unique ID                                : 166360620879036531587195187718251710962 (0x7D27E3DFAD1F718AC26A51DDE71589F2)
Complete name                            : Strike (2018) 1080p [Ukr_Eng_sub_Ukr] [Hurtom].
Format                                   :
Format version                           : Version 4
File size                                : 4.03 GiB
Duration                                 : 1 h 40 min
Overall bit rate                         : 5 753 kb/s
Movie name                               : Гол! (2018)
Encoded date                             : UTC 2020-06-10 14:07:21
Writing application                      : v30.1.0 ('Forever And More') 64-bit
Writing library                          : libebml v1.3.6 + v1.4.9
Cover                                    : Yes
Attachments                              : cover.jpg

Video
ID                                       : 1
Format                                   : AVC
Format/Info                              : Advanced Video Codec
Format profile                           : [email protected]
Format settings                          : CABAC / 4 Ref Frames
Format settings, CABAC                   : Yes
Format settings, ReFrames                : 4 frames
Codec ID                                 : V_MPEG4/ISO/AVC
Duration                                 : 1 h 40 min
Bit rate                                 : 5 174 kb/s
Width                                    : 1 920 pixels
Height                                   : 1 012 pixels
Display aspect ratio                     : 1.897
Frame rate mode                          : Constant
Frame rate                               : 24.000 FPS
Color space                              : YUV
Chroma subsampling                       : 4:2:0
Bit depth                                : 8 bits
Scan type                                : Progressive
Bits/(Pixel*Frame)                       : 0.111
Stream size                              : 3.63 GiB (90%)
Language                                 : English
Default                                  : Yes
Forced                                   : No
Color range                              : Limited
Color primaries                          : BT.709
Transfer characteristics                 : BT.709
Matrix coefficients                      : BT.709

Audio #1
ID                                       : 2
Format                                   : AC-3
Format/Info                              : Audio Coding 3
Commercial name                          : Dolby Digital
Codec ID                                 : A_AC3
Duration                                 : 1 h 40 min
Bit rate mode                            : Constant
Bit rate                                 : 192 kb/s
Channel(s)                               : 2 channels
Channel layout                           : L R
Sampling rate                            : 48.0 kHz
Frame rate                               : 31.250 FPS (1536 SPF)
Bit depth                                : 16 bits
Compression mode                         : Lossy
Delay relative to video                  : -42 ms
Stream size                              : 138 MiB (3%)
Language                                 : Ukrainian
Service kind                             : Complete Main
Default                                  : Yes
Forced                                   : Yes

Audio #2
ID                                       : 3
Format                                   : AC-3
Format/Info                              : Audio Coding 3
Commercial name                          : Dolby Digital
Codec ID                                 : A_AC3
Duration                                 : 1 h 40 min
Bit rate mode                            : Constant
Bit rate                                 : 384 kb/s
Channel(s)                               : 6 channels
Channel layout                           : L R C LFE Ls Rs
Sampling rate                            : 48.0 kHz
Frame rate                               : 31.250 FPS (1536 SPF)
Bit depth                                : 16 bits
Compression mode                         : Lossy
Delay relative to video                  : -42 ms
Stream size                              : 276 MiB (7%)
Language                                 : English
Service kind                             : Complete Main
Default                                  : No
Forced                                   : No

Text
ID                                       : 4
Format                                   : UTF-8
Codec ID                                 : S_TEXT/UTF8
Codec ID/Info                            : UTF-8 Plain Text
Duration                                 : 1 h 39 min
Bit rate                                 : 101 b/s
Count of elements                        : 1652
Stream size                              : 73.8 KiB (0%)
Language                                 : Ukrainian
Default                                  : Yes
Forced                                   : No

Menu
00:00:00.000                             : en:Chapter 1
00:09:20.560                             : en:Chapter 2
00:19:11.150                             : en:Chapter 3
00:29:36.775                             : en:Chapter 4
00:40:52.450                             : en:Chapter 5
00:51:05.062                             : en:Chapter 6
01:00:05.602                             : en:Chapter 7
01:10:44.240                             : en:Chapter 8
01:19:09.745                             : en:Chapter 9
01:30:29.424                             : en:Chapter 10
01:33:35.610                             : en:Chapter 11

Скріншоти





Джерело: і Чілдрен Кінофест
подяка пану igor911 за допомогу у створенні релізу


 Трекер:    Зареєстрований   

Завантажити / скачати мультфільм українською



відео для новачків



 Зареєстрований:   2020-06-10 17:06
 Розмір:   4.03 GB 
 Оцінка мультфільму:   10/10 (Голосів: 2)
   
Ваш часовий пояс: GMT + 2 Години

Нова тема   Відповісти