Похмурий сум / Dark Blue (2002) 1080p Ukr/Eng | Sub Ukr

Нові коментарі

Нова тема   Відповісти
Автор Повідомлення
ArtymKo 
Частий відвідувач


З нами з: 14.01.20
Востаннє: 30.09.20
Повідомлень: 28

2020-06-09 23:02  
Похмурий сум / Dark Blue (2002) 1080p Ukr/Eng | Sub Ukr

Похмурий сум / Dark Blue (2002) 1080p Ukr/Eng | Sub Ukr


Жанр: кримінальний, драма, трилер
Країна: США



Кінокомпанія: Alphaville Films, Cosmic Pictures, IM Filmproduktion
Режисер: Рон Шелтон
Актори: Курт Расел, Вінґ Реймз, Скот Спідман, Джонатан Банкс, Майкл Мішел

Сюжет:
1992 рік. Лос-Анджелес. Поліція побила чорношкірого порушника, що викликало резонанс у суспільстві. Це вкрай не подобається Елдонові, детективу з Відділу спецрозслідувань, що сам не гребує брудними методами роботи – усе заради порядку. І це лише фон. Сюжет розгортається навколо кривавого пограбування, яке здійснила пара бовдурів із Південного Централу, яке Елдон та його напарник Бобі мають розслідувати. І якби ж на тому все закінчувалося.

Трейлер


Вікова категорія: 16+

Тривалість: 01:57:59
Якість: 1080p
Відео:
кодек:
розмір кадру: 1920 х 814
бітрейт: 9460 кб/с

Аудіо # 1:
мова: українська
переклад: багатоголосий закадровий (ArtymKo)
кодек: PCM 2.0
бітрейт: 1536 кб/с

Аудіо # 2:
мова: українська
переклад: багатоголосий закадровий (ArtymKo)
кодек: PCM 5.1
бітрейт: 4608 кб/с

Аудіо # 3:
мова: англійська
переклад: оригінал
кодек: 5.1
бітрейт: 1509 кб/с

Субтитри # 1:
мова: українська (написи)
тип: програмні (м'які)
формат: *.

Субтитри # 2:
мова: українська (повні)
тип: програмні (м'які)
формат: *.
Info
General
Unique ID : 44846488196609167685130786511453698135 (0x21BD1E94656B4BF76C2148B266903857)
Complete name : D:\Films\Dark Blue (2002)\Dark Blue (2002) 1080p [Ukr, Eng] [ArtymKo].
Format :
Format version : Version 4
File size : 14.1 GiB
Duration : 1 h 58 min
Overall bit rate : 17.1 Mb/s
Movie name : Dark Blue (2002) [ArtymKo]
Encoded date : UTC 2020-06-09 22:08:54
Writing application : v42.0.0 ('Overtime') 64-bit
Writing library : libebml v1.3.10 + v1.5.2
Cover : Yes
Attachments : cover.jpg

Video
ID : 1
Format : AVC
Format/Info : Advanced Video Codec
Format profile : [email protected]
Format settings : CABAC / 4 Ref Frames
Format settings, CABAC : Yes
Format settings, Reference : 4 frames
Codec ID : V_MPEG4/ISO/AVC
Duration : 1 h 57 min
Bit rate : 9 460 kb/s
Width : 1 920 pixels
Height : 814 pixels
Display aspect ratio : 2.35:1
Frame rate mode : Constant
Frame rate : 23.976 (24000/1001) FPS
Color space : YUV
Chroma subsampling : 4:2:0
Bit depth : 8 bits
Scan type : Progressive
Bits/(Pixel*Frame) : 0.252
Stream size : 7.80 GiB (55%)
Writing library : core 146 r2538 121396c
Encoding settings : cabac=1 / ref=4 / deblock=1:-3:-3 / analyse=0x3:0x113 / me=umh / subme=10 / psy=1 / psy_rd=1.00:0.15 / mixed_ref=1 / me_range=32 / chroma_me=1 / trellis=2 / 8x8dct=1 / cqm=0 / deadzone=21,11 / fast_pskip=1 / chroma_qp_offset=-3 / threads=6 / lookahead_threads=1 / sliced_threads=0 / nr=0 / decimate=1 / interlaced=0 / bluray_compat=0 / constrained_intra=0 / bframes=11 / b_pyramid=2 / b_adapt=2 / b_bias=0 / direct=1 / weightb=1 / open_gop=0 / weightp=2 / keyint=230 / keyint_min=23 / scenecut=40 / intra_refresh=0 / rc_lookahead=40 / rc=crf / mbtree=0 / crf=20.2 / qcomp=0.60 / qpmin=0 / qpmax=69 / qpstep=4 / vbv_maxrate=40000 / vbv_bufsize=50000 / crf_max=0.0 / nal_hrd=none / filler=0 / ip_ratio=1.40 / pb_ratio=1.30 / aq=1:1.00
Language : English
Default : Yes
Forced : No

Audio #1
ID : 2
Format : PCM
Format settings : Little / Signed
Codec ID : A_PCM/INT/LIT
Duration : 1 h 58 min
Bit rate mode : Constant
Bit rate : 1 536 kb/s
Channel(s) : 2 channels
Sampling rate : 48.0 kHz
Frame rate : 32.000 FPS (1500 SPF)
Bit depth : 16 bits
Stream size : 1.27 GiB (9%)
Title : Стерео (Artymko, Draakull, Lomaev, Vasyl T)
Language : Ukrainian
Default : Yes
Forced : Yes

Audio #2
ID : 3
Format : PCM
Format settings : Little / Signed
Codec ID : A_PCM/INT/LIT
Duration : 1 h 58 min
Bit rate mode : Constant
Bit rate : 4 608 kb/s
Channel(s) : 6 channels
Sampling rate : 48.0 kHz
Frame rate : 32.000 FPS (1500 SPF)
Bit depth : 16 bits
Stream size : 3.80 GiB (27%)
Title : 6 каналів (Artymko, Draakull, Lomaev, Vasyl T)
Language : Ukrainian
Default : No
Forced : No

Audio #3
ID : 4
Format :
Format/Info : Digital Theater Systems
Codec ID : A_DTS
Duration : 1 h 57 min
Bit rate mode : Constant
Bit rate : 1 509 kb/s
Channel(s) : 6 channels
Channel layout : C L R Ls Rs LFE
Sampling rate : 48.0 kHz
Frame rate : 93.750 FPS (512 SPF)
Bit depth : 24 bits
Compression mode : Lossy
Stream size : 1.24 GiB (9%)
Title : Оригінал
Language : English
Default : No
Forced : No

Text #1
ID : 5
Format :
Codec ID : S_TEXT/
Codec ID/Info : Advanced Sub Station Alpha
Duration : 1 h 52 min
Bit rate : 0 b/s
Count of elements : 10
Compression mode : Lossless
Stream size : 812 Bytes (0%)
Title : Написи (HeavyUA, Mormor)
Language : Ukrainian
Default : Yes
Forced : Yes

Text #2
ID : 6
Format :
Codec ID : S_TEXT/
Codec ID/Info : Advanced Sub Station Alpha
Duration : 1 h 52 min
Bit rate : 152 b/s
Count of elements : 1675
Compression mode : Lossless
Stream size : 125 KiB (0%)
Title : Повні (HeavyUA, Mormor)
Language : Ukrainian
Default : No
Forced : No
Скріншоти



Реліз: Команда озвучення «ArtymKo» на замовлення NemoInFire
Переклад: HeavyUA
Редакція: Mormor
Ролі озвучили: Artymko, Draakull, Lomaev (MelodicVoiceStudio), Vasyl T
Таймінг звуку: KohinSan
Робота зі звуком: Vasyl T
Підтримати команду можна за посиланням на цій сторінці. Не забудьте вказати назву проєкту (наприклад, «Похмурий сум») і, за бажання, своє ім'я або нік.
________________
Збір коштів на озвучення
Замовити озвучення
Telegram


Особиста оцінка: 10 - без зайвих вагань рекомендую всім!


Авторський реліз (завантажувати можна без реєстрації)
 Трекер:    Зареєстрований   

Завантажити / скачати фільм українською



відео для новачків



 Зареєстрований:   2020-06-10 11:51
 Розмір:   14.11 GB 
 Оцінка фільму:   10/10 (Голосів: 11)
   
Інші релізи
   Похмурий сум / Dark Blue (2002) AVC Ukr/Eng | Sub Ukr ArtymKo  5 / 0   2.11 GB   2020-06-10 12:52 
bot 
робот


З нами з: 30.09.07
Востаннє: 26.05.05
Повідомлень: 25678

2020-06-09 23:26  
Тему перенесено з Фільми в HD до форуму Анонси релізів


ArtymKo

bot 
робот


З нами з: 30.09.07
Востаннє: 26.05.05
Повідомлень: 25678

2020-06-10 11:51  
Тему перенесено з Анонси релізів до форуму Фільми в HD


ArtymKo

[email protected] 
Новенький


З нами з: 23.02.16
Востаннє: 30.09.20
Повідомлень: 4

2020-06-10 15:33  
На злобу дня)
Dr.S 
Свій


З нами з: 30.05.17
Востаннє: 30.09.20
Повідомлень: 147

2020-06-12 17:52  
знову пророче кіно?
Ваш часовий пояс: GMT + 2 Години

Нова тема   Відповісти