Незбагненне / Inconceivable (2017) AVC

Нові коментарі

Нова тема   Відповісти
Автор Повідомлення
Arsenfpu 
Відео Гуртом - фільмокрай
Відео Гуртом - фільмокрай


З нами з: 30.04.09
Востаннє: 05.07.20
Повідомлень: 7039

2020-06-09 22:37  
Незбагненне / Inconceivable (2017) AVC

Незбагненне / Inconceivable (2017) AVC


Жанр: трилер
Країна: Великобританія, США



Кінокомпанія: Baker Entertainment Group, Emmett/Furla/Oasis Films (EFO Films), Higrowth Films
Режисер: Джонатан Бейкер
Актори: Ніколас Кейдж, Джина Гершон, Фей Данауей, Ніккі Вілан, Наталі Ева Марі, Джеймс Ван Паттен, Тайлер Джон Олсон

Сюжет:
Загадкова молода дівчина Кеті разом зі своєю дочкою переїжджає в нове місто, щоб втекти від минулого. Там вона швидко знаходить спільну мову з жінкою на ім'я Анджела Морган, яка живе з чоловіком Брайаном і дочкою. Анджела запрошує нову подругу пожити в їх гостьовому будиночку і попрацювати у них в нянею. Незабаром Моргани помічають, що Кеті якось занадто прив'язана до їхньої дочки.


Тривалість: 01:46:10
Якість:
Відео:
кодек:
розмір кадру: 1 046 х 438
бітрейт: 1 770 кб/с

Аудіо:
мова: українська
переклад: багатоголосий закадровий
кодек: 2.0
бітрейт: 192 кб/с
Скріншоти














Про файл
General
Unique ID : 24985291351664207857320329691208233398 (0x12CBFDF8D89D76D97D052CAF009E31B6)
Complete name : C:\Inconceivable (2017) AVC [Hurtom].
Format :
Format version : Version 4 / Version 2
File size : 1.46 GiB
Duration : 1 h 46 min
Overall bit rate : 1 963 kb/s
Movie name : Незбагненне / Inconceivable (2017)
Encoded date : UTC 2020-06-13 15:46:12
Writing application : v21.0.0 ('Tardigrades Will Inherit The Earth') 32-bit
Writing library : libebml v1.3.5 + v1.4.8
Cover : Yes
Attachments : cover.jpg

Video
ID : 1
Format : AVC
Format/Info : Advanced Video Codec
Format profile : [email protected]
Format settings, CABAC : Yes
Format settings, ReFrames : 14 frames
Codec ID : V_MPEG4/ISO/AVC
Duration : 1 h 46 min
Bit rate : 1 770 kb/s
Width : 1 046 pixels
Height : 438 pixels
Display aspect ratio : 2.40:1
Frame rate mode : Constant
Frame rate : 23.976 (24000/1001) FPS
Color space : YUV
Chroma subsampling : 4:2:0
Bit depth : 8 bits
Scan type : Progressive
Bits/(Pixel*Frame) : 0.161
Stream size : 1.31 GiB (90%)
Writing library : core 152 r2851kMod ba24899
Encoding settings : cabac=1 / ref=14 / deblock=1:-1:-1 / analyse=0x3:0x113 / me=umh / subme=10 / psy=1 / fade_compensate=0.00 / psy_rd=1.00:0.00 / mixed_ref=1 / me_range=32 / chroma_me=1 / trellis=2 / 8x8dct=1 / cqm=0 / deadzone=21,11 / fast_pskip=0 / chroma_qp_offset=-2 / threads=14 / lookahead_threads=3 / sliced_threads=0 / nr=0 / decimate=0 / interlaced=0 / bluray_compat=0 / constrained_intra=0 / bframes=14 / b_pyramid=2 / b_adapt=2 / b_bias=0 / direct=1 / weightb=1 / open_gop=0 / weightp=2 / keyint=240 / keyint_min=23 / scenecut=40 / intra_refresh=0 / rc_lookahead=60 / rc=2pass / mbtree=0 / bitrate=1770 / ratetol=1.0 / qcomp=0.60 / qpmin=0 / qpmax=69 / qpstep=4 / cplxblur=20.0 / qblur=0.5 / vbv_maxrate=50000 / vbv_bufsize=62500 / nal_hrd=none / filler=0 / ip_ratio=1.40 / pb_ratio=1.30 / aq=1:1.00
Default : Yes
Forced : No

Audio
ID : 2
Format : AC-3
Format/Info : Audio Coding 3
Mode extension : CM (complete main)
Format settings, Endianness : Big
Codec ID : A_AC3
Duration : 1 h 46 min
Bit rate mode : Constant
Bit rate : 192 kb/s
Channel(s) : 2 channels
Channel positions : Front: L R
Sampling rate : 48.0 kHz
Frame rate : 31.250 FPS (1536 spf)
Compression mode : Lossy
Stream size : 146 MiB (10%)
Title : 2+2
Language : Ukrainian
Default : Yes
Forced : No
Джерело:
За запис з ТБ дякую пану Bohdan237
Особиста оцінка: не дивився


 Трекер:    Зареєстрований   

Завантажити / скачати фільм українською



відео для новачків



 Зареєстрований:   2020-06-13 19:06
 Розмір:   1.46 GB 
 Оцінка фільму:   7.2/10 (Голосів: 12)
   
bot 
робот


З нами з: 30.09.07
Востаннє: 26.05.05
Повідомлень: 24971

2020-06-13 19:06  
Тему перенесено з Анонси релізів до форуму Фільми


Arsenfpu

Ваш часовий пояс: GMT + 2 Години

Нова тема   Відповісти