Остаточний рахунок / Final Score (2018) AVC

Нові коментарі

Нова тема   Відповісти
Автор Повідомлення
Arsenfpu 
Відео Гуртом - фільмокрай
Відео Гуртом - фільмокрай


З нами з: 30.04.09
Востаннє: 03.07.20
Повідомлень: 7031

2020-06-09 22:17  
Остаточний рахунок / Final Score (2018) AVC

Остаточний рахунок / Final Score (2018) AVC


Жанр: екшн, трилер
Країна: Велика Британія



Кінокомпанія: Signature Films, Drybake Producitons, Highland Film Group (HFG)
Режисер: Скотт Менн
Актори: Дейв Батіста, Пірс Броснан, Рей Стівенсон, Олександра Діну, Лара Пік, Аміт Шах, Джуліан Чхён, Мартін Форд, Ральф Браун, Крейг Конуей, Люсі Гаскелл

Сюжет:
Американський військовослужбовець Майкл Нокс звинувачує себе в смерті брата, який загинув в гарячій точці. Він прибуває в Лондон, щоб провести час з його дочкою, старшокласницею Денні. Вони разом відправляються на півфінал Ліги Європи, де зійшлися клуби з Англії та Росії. Тим часом на стадіон під виглядом преси проникає російський революціонер Аркадій Бєлов із своїм збройним угрупованням. Вони беруть в заручники начальника охорони і змушують його виконувати їхні вказівки. За допомогою наявної у нього апаратури терористи починають сканувати особи уболівальників в пошуках брата Бєлова, політика Дмитра, який офіційно вважається вбитим. Також зловмисники блокують виходи зі стадіону і заглушають сигнали мобільного зв'язку. Денні тим часом втікає з-під нагляду дядька до свого хлопця, що знаходиться в іншій частині стадіону. Майкл зауважує пропажу племінниці і звертається до працівника арени Файзела. Вони разом відправляються в диспетчерську, де стикаються з одним з терористів. Розправившись із зловмисником, Майкл розуміє, що на стадіоні коїться щось дуже недобре ...


Тривалість: 01:44:44
Якість:
Відео:
кодек:
розмір кадру: 1 024 х 428
бітрейт: 2 123 кб/с

Аудіо:
мова: українська
переклад: багатоголосий закадровий
кодек: 2.0
бітрейт: 192 кб/с
Скріншоти














Про файл
General
Unique ID : 223985945916429072357899783295130545315 (0xA8821FC0D6B520B79BA5AE97F98A2CA3)
Complete name : C:\Final Score (2018) AVC [Hurtom].
Format :
Format version : Version 4 / Version 2
File size : 1.69 GiB
Duration : 1 h 44 min
Overall bit rate : 2 314 kb/s
Movie name : Остаточний рахунок / Final Score (2018)
Encoded date : UTC 2020-06-14 20:45:17
Writing application : v21.0.0 ('Tardigrades Will Inherit The Earth') 32-bit
Writing library : libebml v1.3.5 + v1.4.8
Cover : Yes
Attachments : cover.jpg

Video
ID : 1
Format : AVC
Format/Info : Advanced Video Codec
Format profile : [email protected]
Format settings, CABAC : Yes
Format settings, ReFrames : 12 frames
Codec ID : V_MPEG4/ISO/AVC
Duration : 1 h 44 min
Bit rate : 2 123 kb/s
Width : 1 024 pixels
Height : 428 pixels
Display aspect ratio : 2.40:1
Frame rate mode : Constant
Frame rate : 23.976 (23976/1000) FPS
Color space : YUV
Chroma subsampling : 4:2:0
Bit depth : 8 bits
Scan type : Progressive
Bits/(Pixel*Frame) : 0.202
Stream size : 1.55 GiB (92%)
Writing library : core 152 r2851 ba24899
Encoding settings : cabac=1 / ref=12 / deblock=1:-2:-2 / analyse=0x3:0x113 / me=umh / subme=10 / psy=1 / psy_rd=1.02:0.08 / mixed_ref=1 / me_range=32 / chroma_me=1 / trellis=2 / 8x8dct=1 / cqm=0 / deadzone=21,11 / fast_pskip=0 / chroma_qp_offset=-3 / threads=12 / lookahead_threads=3 / sliced_threads=0 / nr=0 / decimate=0 / interlaced=0 / bluray_compat=0 / constrained_intra=0 / bframes=12 / b_pyramid=2 / b_adapt=2 / b_bias=0 / direct=3 / weightb=1 / open_gop=0 / weightp=2 / keyint=240 / keyint_min=23 / scenecut=40 / intra_refresh=0 / rc=2pass / mbtree=0 / bitrate=2123 / ratetol=1.0 / qcomp=0.60 / qpmin=0 / qpmax=51 / qpstep=4 / cplxblur=20.0 / qblur=0.5 / ip_ratio=1.40 / pb_ratio=1.30 / aq=2:0.90
Language : English
Default : Yes
Forced : No
Color range : Limited
Color primaries : BT.709
Transfer characteristics : BT.709
Matrix coefficients : BT.709

Audio
ID : 2
Format : AC-3
Format/Info : Audio Coding 3
Mode extension : CM (complete main)
Format settings, Endianness : Big
Codec ID : A_AC3
Duration : 1 h 44 min
Bit rate mode : Constant
Bit rate : 192 kb/s
Channel(s) : 2 channels
Channel positions : Front: L R
Sampling rate : 48.0 kHz
Frame rate : 31.250 FPS (1536 spf)
Compression mode : Lossy
Stream size : 144 MiB (8%)
Title : НТН
Language : Ukrainian
Default : Yes
Forced : Yes

Text
ID : 3
Format : UTF-8
Codec ID : S_TEXT/UTF8
Codec ID/Info : UTF-8 Plain Text
Duration : 1 h 40 min
Bit rate : 66 b/s
Count of elements : 1781
Stream size : 48.6 KiB (0%)
Language : English
Default : No
Forced : No

Menu
00:00:00.000 : :00:00:00.000
00:04:55.212 : :00:04:55.212
00:12:20.490 : :00:12:20.490
00:19:22.328 : :00:19:22.328
00:26:07.316 : :00:26:07.316
00:32:03.547 : :00:32:03.547
00:37:42.260 : :00:37:42.260
00:44:52.148 : :00:44:52.148
00:50:28.651 : :00:50:28.651
00:55:18.232 : :00:55:18.232
01:04:28.239 : :01:04:28.239
01:09:22.325 : :01:09:22.325
01:15:25.229 : :01:15:25.229
01:20:17.813 : :01:20:17.813
01:27:18.775 : :01:27:18.775
01:34:14.107 : :01:34:14.107
Джерело:
За запис з ТБ дякую пану Bohdan237
Особиста оцінка: не дивився


 Трекер:    Зареєстрований   

Завантажити / скачати фільм українською



відео для новачків



 Зареєстрований:   2020-06-15 00:09
 Розмір:   1.69 GB 
 Оцінка фільму:   8/10 (Голосів: 15)
   
bot 
робот


З нами з: 30.09.07
Востаннє: 26.05.05
Повідомлень: 24931

2020-06-15 00:09  
Тему перенесено з Анонси релізів до форуму Фільми


Arsenfpu

Ваш часовий пояс: GMT + 2 Години

Нова тема   Відповісти