Кривава помста / In the Blood (2014) AVC Ukr/Eng | Sub Eng

Нові коментарі

Нова тема   Відповісти
Автор Повідомлення
Arsenfpu 
Відео Гуртом - фільмокрай
Відео Гуртом - фільмокрай


З нами з: 30.04.09
Востаннє: 10.07.20
Повідомлень: 7049

2020-06-09 22:01  
Кривава помста / In the Blood (2014) AVC Ukr/Eng | Sub Eng

Кривава помста / In the Blood (2014) AVC Ukr/Eng | Sub Eng


Жанр: трилер, кримінальний, екшн
Країна: США



Кінокомпанія: Anchor Bay Films, 20th Century Fox Home Entertainment, Movie Package Company
Режисер: Джон Стоквел
Актори: Джина Карано, Кем Жіґанте, Тріт Вільямс, Ісмаїл Крус Кордова, Луїс Гусман , Стівен Ланг, Денні Трехо

Сюжет:
Коли її чоловік пропав безвісти під час їхніх карибських канікул, жінка самостійно починає розслідування.


Тривалість: 01:47:40
Якість:
Відео:
кодек:
розмір кадру: 1 060 х 572
бітрейт: 2 067 кб/с

Аудіо # 1:
мова: українська
переклад: багатоголосий закадровий
кодек: 2.0
бітрейт: 192 кб/с

Аудіо # 2:
мова: англійська
переклад: оригінал
кодек: 2.0
бітрейт: 192 кб/с

Субтитри:
мова: англійська
тип: програмні (м'які)
формат: *.srt
Скріншоти














Про файл
General
Unique ID : 171255103224221447506627854906382795685 (0x80D6887C0D037B51DF25E8A34B76C3A5)
Complete name : C:\In the Blood (2014) [Ukr,Eng] AVC [Hurtom].
Format :
Format version : Version 4 / Version 2
File size : 1.84 GiB
Duration : 1 h 47 min
Overall bit rate : 2 449 kb/s
Movie name : Кривава помста / In the Blood (2014)
Encoded date : UTC 2020-06-14 07:31:12
Writing application : v21.0.0 ('Tardigrades Will Inherit The Earth') 32-bit
Writing library : libebml v1.3.5 + v1.4.8
Cover : Yes
Attachments : cover.jpg

Video
ID : 1
Format : AVC
Format/Info : Advanced Video Codec
Format profile : [email protected]
Format settings, CABAC : Yes
Format settings, ReFrames : 10 frames
Codec ID : V_MPEG4/ISO/AVC
Duration : 1 h 47 min
Bit rate : 2 067 kb/s
Width : 1 060 pixels
Height : 572 pixels
Display aspect ratio : 1.85:1
Frame rate mode : Constant
Frame rate : 23.976 (24000/1001) FPS
Color space : YUV
Chroma subsampling : 4:2:0
Bit depth : 8 bits
Scan type : Progressive
Bits/(Pixel*Frame) : 0.142
Stream size : 1.55 GiB (84%)
Writing library : core 142 r2431 ac76440
Encoding settings : cabac=1 / ref=10 / deblock=1:-3:-3 / analyse=0x3:0x133 / me=umh / subme=11 / psy=1 / psy_rd=1.00:0.05 / mixed_ref=1 / me_range=48 / chroma_me=1 / trellis=2 / 8x8dct=1 / cqm=0 / deadzone=21,11 / fast_pskip=0 / chroma_qp_offset=-3 / threads=12 / lookahead_threads=3 / sliced_threads=0 / nr=0 / decimate=0 / interlaced=0 / bluray_compat=0 / constrained_intra=0 / bframes=12 / b_pyramid=2 / b_adapt=2 / b_bias=0 / direct=3 / weightb=1 / open_gop=0 / weightp=2 / keyint=240 / keyint_min=23 / scenecut=40 / intra_refresh=0 / rc_lookahead=80 / rc=2pass / mbtree=0 / bitrate=2067 / ratetol=1.0 / qcomp=0.70 / qpmin=0 / qpmax=69 / qpstep=4 / cplxblur=20.0 / qblur=0.5 / vbv_maxrate=20000 / vbv_bufsize=25000 / nal_hrd=none / filler=0 / ip_ratio=1.20 / pb_ratio=1.10 / aq=1:0.90
Default : Yes
Forced : No

Audio #1
ID : 2
Format : AC-3
Format/Info : Audio Coding 3
Mode extension : CM (complete main)
Format settings, Endianness : Big
Codec ID : A_AC3
Duration : 1 h 47 min
Bit rate mode : Constant
Bit rate : 192 kb/s
Channel(s) : 2 channels
Channel positions : Front: L R
Sampling rate : 48.0 kHz
Frame rate : 31.250 FPS (1536 spf)
Compression mode : Lossy
Stream size : 148 MiB (8%)
Title : НТН
Language : Ukrainian
Default : Yes
Forced : Yes

Audio #2
ID : 3
Format : AC-3
Format/Info : Audio Coding 3
Mode extension : CM (complete main)
Format settings, Endianness : Big
Codec ID : A_AC3
Duration : 1 h 47 min
Bit rate mode : Constant
Bit rate : 192 kb/s
Channel(s) : 2 channels
Channel positions : Front: L R
Sampling rate : 48.0 kHz
Frame rate : 31.250 FPS (1536 spf)
Compression mode : Lossy
Stream size : 148 MiB (8%)
Language : English
Default : No
Forced : No

Text
ID : 4
Format : UTF-8
Codec ID : S_TEXT/UTF8
Codec ID/Info : UTF-8 Plain Text
Duration : 1 h 45 min
Bit rate : 47 b/s
Count of elements : 1303
Stream size : 37.0 KiB (0%)
Title : SDH
Language : English
Default : No
Forced : No
Джерело:
За запис з ТБ дякую пану Bohdan237
Особиста оцінка: не дивився


 Трекер:    Зареєстрований   

Завантажити / скачати фільм українською



відео для новачків



 Зареєстрований:   2020-06-14 10:38
 Розмір:   1.84 GB 
 Оцінка фільму:   8.1/10 (Голосів: 8)
   
Інші релізи
roseintherain 
Поважний учасник


З нами з: 06.02.16
Востаннє: 10.07.20
Повідомлень: 150

2020-06-10 13:32  
фільм так собі, але можна подивитись як Карано махає ногами Happy
Перекладена з рос мови, назва фільму не має ніякого відношення до самого фільму, бо там пошуки, а не помста + гра слів з кров"ю

21jumpstreet 
VIP


З нами з: 03.07.12
Востаннє: 10.07.20
Повідомлень: 1094

2020-06-10 13:54  
Джина Карано мужня красуня ♥️♥️♥️♥️♥️♥️♥️♥️♥️♥️♥️
kryk-v.ya. 
Попереджень: 1
Попереджень: 1 


З нами з: 14.02.14
Востаннє: 10.07.20
Повідомлень: 2110

2020-06-13 19:29  
якщо ніхто не проти, то зроблю
720р.

roseintherain 
Поважний учасник


З нами з: 06.02.16
Востаннє: 10.07.20
Повідомлень: 150

2020-06-13 19:38  
Озвучення 0 з 10, якщо іншого не існує, то я співчуваю тим, хто буде дивитись з укр доріжкою
Arsenfpu 
Відео Гуртом - фільмокрай
Відео Гуртом - фільмокрай


З нами з: 30.04.09
Востаннє: 10.07.20
Повідомлень: 7049

2020-06-13 19:48  
roseintherain
Вибачте, але вас послухати, то на толоці лишиться зо п'ять фільмів з нашим озвученням Happy

bot 
робот


З нами з: 30.09.07
Востаннє: 26.05.05
Повідомлень: 25027

2020-06-14 10:38  
Тему перенесено з Анонси релізів до форуму Фільми


Arsenfpu

Ваш часовий пояс: GMT + 2 Години

Нова тема   Відповісти