Похмурий сум / Dark Blue (2002) AVC Ukr/Eng | Sub Ukr

Нові коментарі

Нова тема   Відповісти
Автор Повідомлення
ArtymKo 
Новенький


З нами з: 14.01.20
Востаннє: 10.07.20
Повідомлень: 21

2020-06-09 21:55  
Похмурий сум / Dark Blue (2002) AVC Ukr/Eng | Sub Ukr

Похмурий сум / Dark Blue (2002) AVC Ukr/Eng | Sub Ukr


Жанр: кримінальний, драма, трилер
Країна: США



Кінокомпанія: Alphaville Films, Cosmic Pictures, IM Filmproduktion
Режисер: Рон Шелтон
Актори: Курт Расел, Вінґ Реймз, Скот Спідман, Джонатан Банкс, Майкл Мішел

Сюжет:
1992 рік. Лос-Анджелес. Поліція побила чорношкірого порушника, що викликало резонанс у суспільстві. Це вкрай не подобається Елдонові, детективу з Відділу спецрозслідувань, що сам не гребує брудними методами роботи – усе заради порядку. І це лише фон. Сюжет розгортається навколо кривавого пограбування, яке здійснила пара бовдурів із Південного Централу, яке Елдон та його напарник Бобі мають розслідувати. І якби ж на тому все закінчувалося.

Трейлер


Вікова категорія: 16+

Тривалість: 01:57:59
Якість:
Відео:
кодек:
розмір кадру: 720 x 336
бітрейт: 833 кб/с

Аудіо # 1:
мова: українська
переклад: багатоголосий закадровий (ArtymKo)
кодек: PCM 2.0
бітрейт: 1536 кб/с

Аудіо # 2:
мова: англійська
переклад: оригінал
кодек: 5.1
бітрейт: 192 кб/с

Субтитри # 1:
мова: українська (написи)
тип: програмні (м'які)
формат: *.

Субтитри # 2:
мова: українська (повні)
тип: програмні (м'які)
формат: *.
Info
General
Unique ID : 230204186293144712142694661209311083467 (0xAD2FB6AC8EDABD836424F0951AB2FBCB)
Complete name : D:\Films\Dark Blue (2002)\Dark Blue (2002) [Ukr, Eng] [ArtymKo].
Format :
Format version : Version 4
File size : 2.11 GiB
Duration : 1 h 58 min
Overall bit rate : 2 563 kb/s
Movie name : Dark Blue (2002) [ArtymKo]
Encoded date : UTC 2020-06-10 09:21:23
Writing application : v42.0.0 ('Overtime') 64-bit
Writing library : libebml v1.3.10 + v1.5.2
Cover : Yes
Attachments : cover.jpg

Video
ID : 1
Format : AVC
Format/Info : Advanced Video Codec
Format profile : [email protected]
Format settings : CABAC / 4 Ref Frames
Format settings, CABAC : Yes
Format settings, Reference : 4 frames
Codec ID : V_MPEG4/ISO/AVC
Duration : 1 h 57 min
Bit rate : 833 kb/s
Nominal bit rate : 900 kb/s
Width : 720 pixels
Height : 336 pixels
Display aspect ratio : 2.35:1
Frame rate mode : Constant
Frame rate : 23.976 (24000/1001) FPS
Color space : YUV
Chroma subsampling : 4:2:0
Bit depth : 8 bits
Scan type : Progressive
Bits/(Pixel*Frame) : 0.144
Stream size : 703 MiB (32%)
Writing library : core 157 r2958 57baac4
Encoding settings : cabac=1 / ref=3 / deblock=1:0:0 / analyse=0x3:0x133 / me=hex / subme=7 / psy=1 / psy_rd=1.00:0.20 / mixed_ref=1 / me_range=16 / chroma_me=1 / trellis=1 / 8x8dct=1 / cqm=0 / deadzone=21,11 / fast_pskip=1 / chroma_qp_offset=-3 / threads=5 / lookahead_threads=1 / sliced_threads=0 / nr=0 / decimate=1 / interlaced=0 / bluray_compat=0 / constrained_intra=0 / bframes=3 / b_pyramid=2 / b_adapt=2 / b_bias=0 / direct=3 / weightb=1 / open_gop=0 / weightp=2 / keyint=240 / keyint_min=24 / scenecut=40 / intra_refresh=0 / rc_lookahead=40 / rc=cbr / mbtree=1 / bitrate=900 / ratetol=1.0 / qcomp=0.60 / qpmin=0 / qpmax=69 / qpstep=4 / vbv_maxrate=900 / vbv_bufsize=642 / nal_hrd=none / filler=0 / ip_ratio=1.40 / aq=1:1.00
Language : English
Default : Yes
Forced : No

Audio #1
ID : 2
Format : PCM
Format settings : Little / Signed
Codec ID : A_PCM/INT/LIT
Duration : 1 h 58 min
Bit rate mode : Constant
Bit rate : 1 536 kb/s
Channel(s) : 2 channels
Sampling rate : 48.0 kHz
Frame rate : 32.000 FPS (1500 SPF)
Bit depth : 16 bits
Stream size : 1.27 GiB (60%)
Title : Стерео (Artymko, Draakull, Lomaev, Vasyl T)
Language : Ukrainian
Default : Yes
Forced : Yes

Audio #2
ID : 3
Format : AC-3
Format/Info : Audio Coding 3
Commercial name : Dolby Digital
Codec ID : A_AC3
Duration : 1 h 57 min
Bit rate mode : Constant
Bit rate : 192 kb/s
Channel(s) : 6 channels
Channel layout : L R C LFE Ls Rs
Sampling rate : 48.0 kHz
Frame rate : 31.250 FPS (1536 SPF)
Compression mode : Lossy
Stream size : 162 MiB (7%)
Title : Оригінал
Language : English
Service kind : Complete Main
Default : No
Forced : No

Text #1
ID : 4
Format :
Codec ID : S_TEXT/
Codec ID/Info : Advanced Sub Station Alpha
Duration : 1 h 52 min
Bit rate : 1 b/s
Count of elements : 10
Compression mode : Lossless
Stream size : 842 Bytes (0%)
Title : Написи (HeavyUA, Mormor)
Language : Ukrainian
Default : Yes
Forced : Yes

Text #2
ID : 5
Format :
Codec ID : S_TEXT/
Codec ID/Info : Advanced Sub Station Alpha
Duration : 1 h 52 min
Bit rate : 152 b/s
Count of elements : 1675
Compression mode : Lossless
Stream size : 125 KiB (0%)
Title : Повні (HeavyUA, Mormor)
Language : Ukrainian
Default : No
Forced : No
Скріншоти




Реліз: Команда озвучення «ArtymKo» на замовлення NemoInFire
Переклад: HeavyUA
Редакція: Mormor
Ролі озвучили: Artymko, Draakull, Lomaev (MelodicVoiceStudio), Vasyl T
Таймінг звуку: KohinSan
Робота зі звуком: Vasyl T
Підтримати команду можна за посиланням на цій сторінці. Не забудьте вказати назву проєкту (наприклад, «Похмурий сум») і, за бажання, своє ім'я або нік.
________________
Замовити озвучення
Наші роботи
Telegram


Особиста оцінка: 10 - без зайвих вагань рекомендую всім!


Авторський реліз (завантажувати можна без реєстрації)
 Трекер:    Зареєстрований   

Завантажити / скачати фільм українською



відео для новачків



 Зареєстрований:   2020-06-10 12:52
 Розмір:   2.11 GB 
 Оцінка фільму:   8.7/10 (Голосів: 18)
   
Інші релізи
   Похмурий сум / Dark Blue (2002) 1080p Ukr/Eng | Sub Ukr ArtymKo  8 / 0   14.11 GB   2020-06-10 11:51 
Jani307 
Свій


З нами з: 09.06.14
Востаннє: 11.07.20
Повідомлень: 133

2020-06-09 22:31  
Нібито "тематичне". Як фільм?
perepadia 
VIP


З нами з: 27.10.08
Востаннє: 11.07.20
Повідомлень: 300

2020-06-09 22:33  
Цитата:
Похмурий сум...


Гарна травичка :-)

-_-B_Е_N_D_E_R-_- 
VIP


З нами з: 04.03.20
Востаннє: 11.07.20
Повідомлень: 279

2020-06-09 23:16  
ArtymKo написано:
розмір кадру: 1280 х 544

це HD
але він не проходить по параметрах
ArtymKo написано:
Bits/(Pixel*Frame) : 0.090


Додано через 56 секунд:

ArtymKo написано:
BRRip

BDRip

igor911 
Модератор відео


З нами з: 18.01.08
Востаннє: 11.07.20
Повідомлень: 14872

2020-06-10 08:23  
ArtymKo написано:
BluRay
розмір кадру: 1280 х 544
Bits/(Pixel*Frame) : 0.090
fast_pskip=1 / bframes=3 / rc=2pass / bitrate=1500

Це не блурей, а неякісний ріп з ріпу, що не відповідає правилам https://toloka.to/t201 (Додаток до релізів в якості HD), треба замінити ріп на якісніший.
Також виникає питання, навіщо до такого вбогого ріпу тулити нестиснений PCM звук, який вкупі займає 80% ваги файлу?

bot 
робот


З нами з: 30.09.07
Востаннє: 26.05.05
Повідомлень: 25039

2020-06-10 14:09  
Тему перенесено з Неоформлене відео до форуму Фільми


igor911

Myk1209 
VIP


З нами з: 04.02.12
Востаннє: 11.07.20
Повідомлень: 313

2020-06-10 14:56  
igor911 написано:
Це не блурей, а неякісний ріп з ріпу,.........
Виникає питання, навіщо до такого вбогого ріпу тулити нестиснений PCM звук, який вкупі займає 80% ваги файлу?

от!!!!!! істина правда!!!

Атлет 
Попереджень: 1
Попереджень: 1 


З нами з: 26.07.18
Востаннє: 11.07.20
Повідомлень: 166

2020-06-17 13:35  
Гарна картина, шкода що гоблінська озвучка роздається в ненадійному контейлері тим хто не за достоінством оцінює цю прекрасну стрічку...
Ваш часовий пояс: GMT + 2 Години

Нова тема   Відповісти