Цирк Сонця - "Вода" / Cirque du Soleil - "O" (2020) 720p Ger | sub Ukr [Театр]

Нові коментарі

Нова тема   Відповісти
Автор Повідомлення
Anonymous 







2020-06-09 20:51  
Цирк Сонця - "Вода" / Cirque du Soleil - "O" (2020) 720p Ger | sub Ukr [Театр]

Цирк Сонця - "Вода" / Cirque du Soleil - "O" (2020) 720p Ger | sub Ukr [Театр]


Жанр: театр
Країна: США

Сюжет:
Ткачі гобелен артистизму, сюрреалізму та театральної романтики, «О» віддає належне красі театру. Натхненні концепцією нескінченності та витонченості води, акробати світового класу, синхронізовані плавці та водолази створюють захоплюючі враження. Тільки в Белладжіо, Лас-Вегас.


Тривалість: 01:33:28
Якість:
Відео:
кодек:
розмір кадру: 1280 х 720
бітрейт: 2173 кб/с

Аудіо:
мова: німецька
переклад: оригінал
кодек: 2.0
бітрейт: 125 кб/с

Субтитри:
мова: українська
тип: програмні (м'які)
формат: *.
переклад: власний аматорський, з німецької
Скріншоти








Info
General
Unique ID : 195953539139684408729925375615168438716 (0x936B47644599D5349084FAC578B061BC)
Complete name : Cirque du Soleil - O\Cirque du Soleil - O (2020) 720p [GER] [SUB UKR] [Театр].
Format :
Format version : Version 4
File size : 1.50 GiB
Duration : 1 h 33 min
Overall bit rate : 2 301 kb/s
Encoded date : UTC 2020-06-09 16:59:11
Writing application : v46.0.0 ('No Deeper Escape') 64-bit
Writing library : libebml v1.3.10 + v1.5.2

Video
ID : 1
Format : AVC
Format/Info : Advanced Video Codec
Format profile : [email protected]
Format settings : CABAC / 3 Ref Frames
Format settings, CABAC : Yes
Format settings, Reference : 3 frames
Codec ID : V_MPEG4/ISO/AVC
Duration : 1 h 33 min
Bit rate : 2 173 kb/s
Width : 1 280 pixels
Height : 720 pixels
Display aspect ratio : 16:9
Frame rate mode : Constant
Frame rate : 25.000 FPS
Standard : PAL
Color space : YUV
Chroma subsampling : 4:2:0
Bit depth : 8 bits
Scan type : Progressive
Bits/(Pixel*Frame) : 0.094
Stream size : 1.42 GiB (94%)
Default : Yes
Forced : No
Color range : Limited

Audio
ID : 2
Format : LC
Format/Info : Advanced Audio Codec Low Complexity
Codec ID : A_AAC-2
Duration : 1 h 33 min
Bit rate : 125 kb/s
Channel(s) : 2 channels
Channel layout : L R
Sampling rate : 48.0 kHz
Frame rate : 46.875 FPS (1024 SPF)
Compression mode : Lossy
Delay relative to video : -80 ms
Stream size : 83.9 MiB (5%)
Default : Yes
Forced : No

Text
ID : 3
Format :
Codec ID : S_TEXT/
Codec ID/Info : Advanced Sub Station Alpha
Duration : 6 min 29 s
Bit rate : 61 b/s
Count of elements : 25
Compression mode : Lossless
Stream size : 2.91 KiB (0%)
Title : Українські
Language : Ukrainian
Default : Yes
Forced : No
Для покращення релізу
- Якщо хтось замітив помилки в субтитрах/перекладі, пишіть.
- Якщо хтось хоче озвучити дане відео, пишіть, з радістю додам озвучку до релізу.
Джерело:
Особиста оцінка: 10 - без зайвих вагань рекомендую всім!


Золотий реліз (завантажене не впливає на рейтинг)
 Трекер:    Зареєстрований   

Завантажити / скачати фільм українською



відео для новачків



 Зареєстрований:   2020-06-09 20:51
 Розмір:   1.5 GB 
 Оцінка фільму:   8.8/10 (Голосів: 8)
   
Gamerman 
Новенький


З нами з: 04.03.15
Востаннє: 29.11.20
Повідомлень: 21

2020-06-12 21:15  
Переглянув із задоволенням!
11FrYkT 
Модератор відео


З нами з: 20.02.11
Востаннє: 30.11.20
Повідомлень: 7038

2020-06-14 14:12  
Anonymous написано:
Cirque du Soleil - "O" (2020) 720p Ger | sub Ukr [Театр]

додайте укр назву

Anonymous 







2020-06-15 09:06  
11FrYkT написано:
додайте укр назву

Додав

Anonymous 







2020-06-30 23:09  
Щось новини не дуже...
https://www.pravda.com.ua/news/2020/06/30/7257564

Найшов ще пару шоу від них, зроблю релізи в цьому місяці.

Ваш часовий пояс: GMT + 2 Години

Нова тема   Відповісти