Едігна. Донька Анни Київської і Генріха І (2019) AVC [Театр]

Нові коментарі

Нова тема   Відповісти
Автор Повідомлення
Anonymous 







2020-06-09 16:34  
Едігна. Донька Анни Київської і Генріха І (2019) AVC [Театр]

Едігна. Донька Анни Київської і Генріха І (2019) AVC [Театр]


Жанр: театр
Країна: Україна

Актори: Ірма Вітовська, Анастасія Блажчук

Сюжет:
Історичний перфоманс

У виставі розгортається історія внучки Ярослава Мудрого — Едігни — надзвичайна, насичена і карколомними пригодами, і яскравими переказами, що нагромадилися за століття. Переказують, що Едігна дуже хотіла втекти з Парижа, бо її сильно вабив Київ — місто діда, князя Ярослава. Тим часом у Франції внучка Ярослава і донька Генріха І отримала чудову освіту при дворі. Але дівчина була гордої вдачі — й відмовилася від примусового шлюбу. І все-таки втекла. Згідно з легендами, Едігна, подорожуючи, поселилася в дуплі старої липи і прожила там майже три десятиліття, як черниця в келії. Попри все, Едігна впродовж свого складного життя навчала дітей, залучала людей до християнської віри. У 1060 році римо- Католицька Церква проголосила її блаженною.

Літературна основа — драматична поема Олександра Ірванця.
У ролі Анни Київської — Ірма Вітовська.
У ролі Едігни — Анастасія Блажчук.
У проєкті також задіяні: екс-міністр культури Євген Нищук, Федір Стригун, Остап Ступка, Олексій Березнюк, Тарас Компаніченко.
Реалізація проєкту (постановка, продюсування) — Федір Баландін.


Тривалість: 00:51:44
Якість: AVC
Відео:
кодек:
розмір кадру: 720 x 576
бітрейт: 2045 кб/с

Аудіо:
мова: українська
переклад: оригінал
кодек: 2.0
бітрейт: 130 кб/с
Info
General
Unique ID : 34485586917271244138960098622106624648 (0x19F1AEB5008F1AE4507A900D8B69E288)
Complete name : Едігна. Донька Анни Київської і Генріха І (2019) 720p [UKR] [Театр].
Format :
Format version : Version 4
File size : 805 MiB
Duration : 51 min 44 s
Overall bit rate : 2 175 kb/s
Encoded date : UTC 2020-06-15 19:24:17
Writing application : v46.0.0 ('No Deeper Escape') 64-bit
Writing library : libebml v1.3.10 + v1.5.2

Video
ID : 1
Format : AVC
Format/Info : Advanced Video Codec
Format profile : [email protected]
Format settings : 2 Ref Frames
Format settings, CABAC : No
Format settings, Reference frames : 2 frames
Format settings, GOP : M=3, N=50
Codec ID : V_MPEG4/ISO/AVC
Duration : 51 min 44 s
Bit rate : 2 045 kb/s
Width : 720 pixels
Height : 576 pixels
Display aspect ratio : 16:9
Frame rate mode : Constant
Frame rate : 25.000 FPS
Standard : PAL
Color space : YUV
Chroma subsampling : 4:2:0
Bit depth : 8 bits
Scan type : Progressive
Bits/(Pixel*Frame) : 0.197
Stream size : 756 MiB (94%)
Default : Yes
Forced : No

Audio
ID : 2
Format : LC
Format/Info : Advanced Audio Codec Low Complexity
Codec ID : A_AAC-2
Duration : 51 min 44 s
Bit rate : 130 kb/s
Channel(s) : 2 channels
Channel layout : L R
Sampling rate : 48.0 kHz
Frame rate : 46.875 FPS (1024 SPF)
Compression mode : Lossy
Stream size : 47.6 MiB (6%)
Language : Ukrainian
Default : Yes
Forced : No
Скріншоти







Торент обновлено 16-06-2020 змінена контейнера ts на

Торент обновлено 16-06-2020 змінено назву файлу

Дякую за наданий матеріал POMEO.
Джерело:
Особиста оцінка: 9 - давно не бачив настільки якісне кіно


Золотий реліз (завантажене не впливає на рейтинг)
 Трекер:    Зареєстрований   

Завантажити / скачати український фільм



відео для новачків



 Зареєстрований:   2020-06-16 20:58
 Розмір:   805 MB 
 Оцінка фільму:   9.9/10 (Голосів: 16)
   
11FrYkT 
Модератор відео


З нами з: 20.02.11
Востаннє: 01.03.21
Повідомлень: 7152

2020-06-14 14:08  
Anonymous написано:

Відео:
кодек:
розмір кадру: 720 x 576
Аудіо:
мова: українська
кодек: 2.0

дооформити

Anonymous написано:
Якість: TS

ні

alexhap 
Частий відвідувач


З нами з: 23.09.16
Востаннє: 02.03.21
Повідомлень: 34

2020-06-14 17:06  
важко слухати. це на телеканалі пустили звук такої якості?
Anonymous 







2020-06-14 21:33  
11FrYkT написано:

Anonymous написано:
Якість: TS

ні

Релізом поділилися, шо б я його зробив, підкажіть який формат цього релізу бо я не знаю.

11FrYkT написано:

Відео:
кодек:
розмір кадру: 720 x 576
Аудіо:
мова: українська
кодек: 2.0

дооформити


бітрейт я не знаю який, Info не витягує...
витянуло загальний Overall bit rate : 2 314 kb/s окремо по відео/аудіо нема...

Також пробував перепакувати в контейнер , получилось фіаско, відео підглючує, рішив лишити як є.
Якщо знаєте як добратися до бітрейту аудіо/відео, підкажіть.

alexhap написано:
важко слухати. це на телеканалі пустили звук такої якості?

Я не знаю, таким відео поділились. Також створював тему для покращення звуку, результат - лишити як є.

ssTAss 
Модератор музики


З нами з: 05.07.08
Востаннє: 02.03.21
Повідомлень: 17414

2020-06-14 21:40  
Anonymous написано:
Якість: TS

Anonymous написано:
.ts

ts це у Вас контейнер https://uk.wikipedia.org/wiki/MPEG_transport_stream, а не TeleSync
скоріш за все тут AVC (якщо вантажили десь з архіву чи сайту) або (, , ) - якщо самі писали з трансляції
ts ніби небажано викладати в мережі, він добрий для трансляції, а не для зберігання
переважно перепаковують в мкв чи мп4 для зручності

Anonymous 







2020-06-16 15:45  
Торент обновлено, а іменно:
- зміна контейнера ts =>
- відкоректовано бітрейти з новим контейнером

ssTAss 
Модератор музики


З нами з: 05.07.08
Востаннє: 02.03.21
Повідомлень: 17414

2020-06-16 18:18  
Anonymous написано:
720p

тільки тут помилилися
720 - це коли ширина 720, а не висота
грубо кажучи, у Вас 576p, але так, мабуть, в нас не пишеться.. просто AVC

Anonymous 







2020-06-16 21:02  
ssTAss написано:
тільки тут помилилися
720 - це коли ширина 720, а не висота
грубо кажучи, у Вас 576p, але так, мабуть, в нас не пишеться.. просто AVC


Дякую за зауваження! Не звернув на це увагу.

Торент обновлено, зміни:
- Переіменував файл в роздачі


хто завантажив, переіменуйте файл на:

Едігна. Донька Анни Київської і Генріха І (2019) AVC [Театр].

гарного перегляду.

ssTAss 
Модератор музики


З нами з: 05.07.08
Востаннє: 02.03.21
Повідомлень: 17414

2020-06-16 21:38  
Anonymous написано:
Дякую за зауваження! Не звернув на це увагу.

ssTAss написано:
720 - це коли ширина 720, а не висота

та я сам помилився))))
мав написати навпаки, але Ви мене зрозуміли - 720p, то має бути 720 по висоті

подяка за театр, викладайте ще

Ваш часовий пояс: GMT + 2 Години

Нова тема   Відповісти