Пригоди Форда Ферлейна / The Adventures of Ford Fairlane (1990) 1080p Ukr/Eng | sub Eng

Нові коментарі

Нова тема   Відповісти
Автор Повідомлення
urij546724 
Відео Гуртом - фільмокрай
Відео Гуртом - фільмокрай


З нами з: 16.03.10
Востаннє: 23.09.20
Повідомлень: 5701

2020-06-09 09:43  
Пригоди Форда Ферлейна / The Adventures of Ford Fairlane (1990) 1080p Ukr/Eng | sub Eng



Жанр: екшн, пригодницький, комедія, кримінальний, музичний, детектив
Країна: США



Кіностудія / кінокомпанія: Twentieth Century Fox, Silver Pictures
Режисер: Ренні Харлін (Renny Harlin)
Актори: Ендрю Дайс Клей (Andrew Dice Clay), Вейн Ньютон (Wayne Newton), Прісцилла Преслі (Priscilla Presley), Морріс Дей (Morris Day), Лаурен Холлі (Lauren Holly), Медді Корман (Maddie Corman), Гілберт Готтфрід (Gilbert Gottfried)...

Сюжет:
Форд Ферлейн - приватний детектив, якого всі називають «детективом рок-н-ролу». Одного разу до нього звертається старий приятель, радіо-діджей Джонні Кранч, з проханням відшукати зниклу сестру по імені Пелюстка Зу-зу. Однак, в цей же день Джонні вбивають прямо в студії під час ефіру. А кілька днів потому до Ферлейна приходить ставна красива дама і пропонує хороші гроші, якщо він відшукає її сестру - Пелюстку Зу-зу. Форд вирішує розібратися в цій повній загадок і інтриг справі...


Тривалість: 01:41:49
Якість: 1080p
Відео:
кодек:
розмір кадру: 1920 х 816
бітрейт: 15,1 мб/с

Аудіо #1:
мова: українська
переклад: багатоголосий закадровий
кодек: 2.0
бітрейт: 192 кб/с
озвучено: Так Треба Продакшн на замовлення ICTV
примітка: озвучка відсутня на відрізку 40:56 - 42:33

Аудіо #2:
мова: англійська
переклад: оригінал
кодек: 5.1
бітрейт: 448 кб/с

Субтитри #1:
мова: українська
тип: програмні (м'які)
формат: *.srt
примітка: форсовані, на моменти без озвучки

Субтитри #2:
мова: англійська
тип: програмні (м'які)
формат: *.srt
Info:
General
Unique ID : 231201237144392647772648574701691979820 (0xADEFBD138D14867DE09C8A63F897C82C)
Format :
Format version : Version 4
File size : 11.2 GiB
Duration : 1 h 41 min
Overall bit rate : 15.7 Mb/s
Movie name : The Adventures of Ford Fairlane (1990) [Ukr.TTPforICTV_Eng, sub Eng] 1080p [Hurtom] by urij546724
Encoded date : UTC 2020-06-08 17:34:33
Writing application : v47.0.0 ('Black Flag') 64-bit
Writing library : libebml v1.3.10 + v1.5.2
Attachments : The Adventures of Ford Fairlane (1990) [Ukr.TTPforICTV_Eng, sub Eng] 1080p [Hurtom] by urij546724.jpg

Video
ID : 1
Format : AVC
Format/Info : Advanced Video Codec
Format profile : [email protected]
Format settings : CABAC / 5 Ref Frames
Format settings, CABAC : Yes
Format settings, Reference : 5 frames
Codec ID : V_MPEG4/ISO/AVC
Duration : 1 h 41 min
Bit rate : 15.1 Mb/s
Width : 1 920 pixels
Height : 816 pixels
Display aspect ratio : 2.35:1
Frame rate mode : Constant
Frame rate : 23.976 (24000/1001) FPS
Color space : YUV
Chroma subsampling : 4:2:0
Bit depth : 8 bits
Scan type : Progressive
Bits/(Pixel*Frame) : 0.402
Stream size : 10.7 GiB (96%)
Title : The Adventures of Ford Fairlane (1990) 1080p [Hurtom] by urij546724
Writing library : core 160 r3000 33f9e14
Encoding settings : cabac=1 / ref=5 / deblock=1:-3:-3 / analyse=0x3:0x133 / me=umh / subme=11 / psy=1 / psy_rd=1.00:0.00 / mixed_ref=1 / me_range=32 / chroma_me=1 / trellis=2 / 8x8dct=1 / cqm=0 / deadzone=21,11 / fast_pskip=0 / chroma_qp_offset=-2 / threads=12 / lookahead_threads=1 / sliced_threads=0 / nr=0 / decimate=0 / interlaced=0 / bluray_compat=0 / constrained_intra=0 / bframes=10 / b_pyramid=2 / b_adapt=2 / b_bias=0 / direct=3 / weightb=1 / open_gop=0 / weightp=2 / keyint=240 / keyint_min=23 / scenecut=40 / intra_refresh=0 / rc_lookahead=60 / rc=2pass / mbtree=0 / bitrate=15093 / ratetol=1.0 / qcomp=0.60 / qpmin=0 / qpmax=69 / qpstep=4 / cplxblur=20.0 / qblur=0.5 / vbv_maxrate=40000 / vbv_bufsize=50000 / nal_hrd=none / filler=0 / ip_ratio=1.20 / pb_ratio=1.20 / aq=1:1.00
Language : English
Default : Yes
Forced : No

Audio #1
ID : 2
Format : AC-3
Format/Info : Audio Coding 3
Commercial name : Dolby Digital
Codec ID : A_AC3
Duration : 1 h 41 min
Bit rate mode : Constant
Bit rate : 192 kb/s
Channel(s) : 2 channels
Channel layout : L R
Sampling rate : 48.0 kHz
Frame rate : 31.250 FPS (1536 SPF)
Compression mode : Lossy
Stream size : 140 MiB (1%)
Title : Українська доріжка
Language : Ukrainian
Service kind : Complete Main
Default : Yes
Forced : Yes

Audio #2
ID : 3
Format : AC-3
Format/Info : Audio Coding 3
Commercial name : Dolby Digital
Codec ID : A_AC3
Duration : 1 h 41 min
Bit rate mode : Constant
Bit rate : 448 kb/s
Channel(s) : 6 channels
Channel layout : L R C LFE Ls Rs
Sampling rate : 48.0 kHz
Frame rate : 31.250 FPS (1536 SPF)
Compression mode : Lossy
Stream size : 326 MiB (3%)
Title : Оригінальна доріжка
Language : English
Service kind : Complete Main
Default : No
Forced : No

Text #1
ID : 4
Format : UTF-8
Codec ID : S_TEXT/UTF8
Codec ID/Info : UTF-8 Plain Text
Duration : 1 min 37 s
Bit rate : 95 b/s
Count of elements : 19
Stream size : 1.14 KiB (0%)
Title : Українські субтитри (форсовані)
Language : Ukrainian
Default : Yes
Forced : Yes

Text #2
ID : 5
Format : UTF-8
Codec ID : S_TEXT/UTF8
Codec ID/Info : UTF-8 Plain Text
Duration : 1 h 41 min
Bit rate : 74 b/s
Count of elements : 1788
Stream size : 54.8 KiB (0%)
Title : Англійські субтитри
Language : English
Default : No
Forced : No

Text #3
ID : 6
Format : UTF-8
Codec ID : S_TEXT/UTF8
Codec ID/Info : UTF-8 Plain Text
Duration : 1 h 41 min
Bit rate : 79 b/s
Count of elements : 1945
Stream size : 58.8 KiB (0%)
Title : Англійські субтитри (SDH)
Language : English
Default : No
Forced : No

Menu
00:00:00.000 : en:01
00:09:34.282 : en:02
00:19:11.359 : en:03
00:29:13.752 : en:04
00:42:08.234 : en:05
00:50:12.843 : en:06
01:02:23.448 : en:07
01:09:51.396 : en:08
01:20:14.476 : en:09
01:30:19.289 : en:10
01:36:58.438 : en:11
Скріншоти:





Трейлери:
Семпл:
Джерело 1_________Джерело 2_________Джерело 3_________Джерело 4_________Джерело 5
У випадку, якщо з усіх джерел семпл видалять, прохання повідомити мені у ПРИВАТ


Подяка:

1. Пану Hulk1987 за запис звуку з ТБ.
2. Пану Givi_мол. за українізацію постера.


Реліз створено: &


Срібний реліз (на рейтинг впливає 50% завантаженого)
 Трекер:    Зареєстрований   

Завантажити / скачати фільм українською



відео для новачків



 Зареєстрований:   2020-06-09 09:43
 Розмір:   11.19 GB 
 Оцінка фільму:   7.5/10 (Голосів: 4)
 Прохання не тікати з роздачі і залишати коментарі.
   
Інші релізи
Ваш часовий пояс: GMT + 2 Години

Нова тема   Відповісти