Рік та Морті (Сезон 3) / Rick and Morty (Season 3) (2017) 1080p Ukr/Eng | Sub Eng

Нові коментарі

Нова тема   Відповісти
Автор Повідомлення
Argentum 
VIP


З нами з: 25.09.11
Востаннє: 11.04.21
Повідомлень: 309

2020-06-08 22:45  
Рік та Морті (Сезон 3) / Rick and Morty (Season 3) (2017) 1080p Ukr/Eng | Sub Eng

Рік та Морті (Сезон 3) / Rick and Morty (Season 3) (2017) 1080p Ukr/Eng | Sub Eng


Жанр: анімація, пригодницький, комедія, фантастика
Країна: США



Кінокомпанія: Justin Roiland's Solo Vanity, Card Productions, Dan Harmon Productions, Starburns Industries, Williams Street
Режисер: Джефф Маєрс, Брайан Ньютон, Джон Райс, Джастін Ройланд, Стівен Сандовал
Актори: Джастін Ройланд, Кріс Парнелл, Сара Чок, Спенсер Греммер, Карі Валгрен, Том Кенні, Раян Рідлі та інші

Сюжет:
Мультсеріал обертається навколо пригод членів родини Сміт, до складу якої входять батьки Джеррі та Бет, їхні діти Саммер і Морті, та батько Бет Рік Санчес, який живе з ними як гість. За словами Джастіна Ройленда, родина живе за межами міста Сіетл, штат Вашингтон. Пригоди Ріка і Морті, відбуваються через нескінченну кількість реалій, герої подорожують на інші планети та розміри через портали й літаючу машину Ріка.


Тривалість: 1 серія: 22:00 (цілком серій: 10)
Перелік серій
3x01. The Rickshank Rickdemption
3x02. Rickmancing the Stone
3x03. Pickle Rick
3x04. Vindicators 3: The Return of Worldender
3x05. The Whirly Dirly Conspiracy
3x06. Rest and Ricklaxation
3x07. The Ricklantis Mixup
3x08. Morty's Mind Blowers
3x09. The ABC's of Beth
3x10. The Rickchurian Mortydate
Якість:
Відео:
кодек:
розмір кадру: 1920 х 1080
бітрейт: 5996 - 6333 кб/с

Аудіо # 1:
мова: українська
переклад: професійний дубльований | FanVoxUA & Т.С. Струґачка
кодек: 2.0
бітрейт: 256 кб/с

Аудіо # 2:
мова: англійська
переклад: оригінал
кодек: 5.1
бітрейт: 640 кб/с

Субтитри:
мова: англійська
тип: програмні (м'які)
формат: *.srt
Info
General
Unique ID : 27917612949744634531724602098647574755 (0x1500BC96C5341AC7EEAE3A59821028E3)
Complete name : Rick.and.Morty.S03E01..1080p.Ukr.Eng.Hurtom.
Format :
Format version : Version 4
File size : 1.13 GiB
Duration : 23 min 22 s
Overall bit rate : 6 897 kb/s
Movie name : 3x01. The Rickshank Rickdemption
Encoded date : UTC 2020-06-08 16:04:06
Writing application : v47.0.0 ('Black Flag') 64-bit
Writing library : libebml v1.3.10 + v1.5.2

Video
ID : 1
Format : AVC
Format/Info : Advanced Video Codec
Format profile : [email protected]
Format settings : CABAC / 4 Ref Frames
Format settings, CABAC : Yes
Format settings, Reference : 4 frames
Codec ID : V_MPEG4/ISO/AVC
Duration : 23 min 22 s
Bit rate : 5 996 kb/s
Width : 1 920 pixels
Height : 1 080 pixels
Display aspect ratio : 16:9
Frame rate mode : Constant
Frame rate : 23.976 (24000/1001) FPS
Color space : YUV
Chroma subsampling : 4:2:0
Bit depth : 8 bits
Scan type : Progressive
Bits/(Pixel*Frame) : 0.121
Stream size : 1 003 MiB (87%)
Title : AVC 1920*1080 @ 5 996 kb/s
Writing library : core 155 r2901 7d0ff22
Encoding settings : cabac=1 / ref=4 / deblock=1:1:1 / analyse=0x3:0x113 / me=umh / subme=8 / psy=1 / psy_rd=0.40:0.00 / mixed_ref=1 / me_range=24 / chroma_me=1 / trellis=1 / 8x8dct=1 / cqm=0 / deadzone=21,11 / fast_pskip=1 / chroma_qp_offset=-2 / threads=34 / lookahead_threads=5 / sliced_threads=0 / nr=0 / decimate=1 / interlaced=0 / bluray_compat=0 / constrained_intra=0 / bframes=5 / b_pyramid=2 / b_adapt=1 / b_bias=0 / direct=3 / weightb=1 / open_gop=0 / weightp=2 / keyint=240 / keyint_min=24 / scenecut=40 / intra_refresh=0 / rc_lookahead=50 / rc=2pass / mbtree=1 / bitrate=5996 / ratetol=1.0 / qcomp=0.60 / qpmin=0 / qpmax=69 / qpstep=4 / cplxblur=20.0 / qblur=0.5 / ip_ratio=1.40 / aq=1:0.60
Language : Multiple languages
Default : Yes
Forced : Yes

Audio #1
ID : 2
Format : AC-3
Format/Info : Audio Coding 3
Commercial name : Dolby Digital
Codec ID : A_AC3
Duration : 23 min 20 s
Bit rate mode : Constant
Bit rate : 256 kb/s
Channel(s) : 2 channels
Channel layout : L R
Sampling rate : 48.0 kHz
Frame rate : 31.250 FPS (1536 SPF)
Compression mode : Lossy
Stream size : 42.7 MiB (4%)
Title : AC-3 2.0 @ 256 kb/s
Language : Ukrainian
Service kind : Complete Main
Default : Yes
Forced : Yes

Audio #2
ID : 3
Format : AC-3
Format/Info : Audio Coding 3
Commercial name : Dolby Digital
Codec ID : A_AC3
Duration : 23 min 22 s
Bit rate mode : Constant
Bit rate : 640 kb/s
Channel(s) : 6 channels
Channel layout : L R C LFE Ls Rs
Sampling rate : 48.0 kHz
Frame rate : 31.250 FPS (1536 SPF)
Compression mode : Lossy
Stream size : 107 MiB (9%)
Title : AC-3 5.1 @ 640 kb/s
Language : English
Service kind : Complete Main
Default : No
Forced : No

Text
ID : 4
Format : UTF-8
Codec ID : S_TEXT/UTF8
Codec ID/Info : UTF-8 Plain Text
Duration : 23 min 12 s
Bit rate : 128 b/s
Count of elements : 639
Stream size : 21.8 KiB (0%)
Title : SDH
Language : English
Default : No
Forced : No

Menu
00:00:00.000 : en:00:00:00.000
00:01:23.000 : en:00:01:23.000
00:01:54.823 : en:00:01:54.823
00:09:55.887 : en:00:09:55.887
00:22:13.874 : en:00:22:13.874
Скріншоти







Джерело: & & &


Особиста оцінка: 8 - мені сподобалося



Авторський реліз (завантажувати можна без реєстрації)
 Трекер:    Зареєстрований   

Завантажити / скачати мультфільм українською



відео для новачків



 Зареєстрований:   2020-06-09 13:24
 Розмір:   11.25 GB 
 Оцінка мультсеріалу:   10/10 (Голосів: 9)
   
bot 
робот


З нами з: 30.09.07
Востаннє: 26.05.05
Повідомлень: 27845

2020-06-08 22:45  
Тему перенесено з Мультсеріали в HD до форуму Анонси релізів


Argentum

bot 
робот


З нами з: 30.09.07
Востаннє: 26.05.05
Повідомлень: 27845

2020-06-09 13:23  
Тему перенесено з Анонси релізів до форуму Мультсеріали в HD


Argentum

Ваш часовий пояс: GMT + 2 Години

Нова тема   Відповісти