Франкенвіні / Frankenweenie (2012) AVC Ukr/Eng | Sub Ukr/Eng

Нові коментарі

Нова тема   Відповісти
Автор Повідомлення
staf777 
Відео Гуртом - підтримка та поширення
Відео Гуртом - підтримка та поширення


З нами з: 16.11.16
Востаннє: 29.10.20
Повідомлень: 4242

2020-06-07 21:05  
Франкенвіні / Frankenweenie (2012) AVC Ukr/Eng | Sub Ukr/Eng

Франкенвіні / Frankenweenie (2012) AVC Ukr/Eng | Sub Ukr/Eng


Жанр: анімація, комедія, жахи, фантастика
Країна: США



Кінокомпанія: Walt Disney Pictures, Tim Burton Animation Co., Tim Burton Productions
Режисер: Тім Бартон / Tim Burton
Ролі озвучують: Катрін О'Гара / Catherine O'Hara, Мартін Шорт / Martin Short, Мартін Ландау / Martin Landau, Чарлі Таган / Charlie Tahan, Аттікус Шаффер / Atticus Shaffer, Bінона Рідер / Winona Ryder, Роберт Капрон / Robert Capron, Джеймс Хіроіукі Ліао / James Hiroyuki Liao, Кончата Феррелл / Conchata Ferrell, Том Кенні / Tom Kenny

Сюжет:
У маленькому місті юний науковець-початківець залишився без свого найкращого друга - песика Бублика, який загинув під колесами автомобіля. Але експериментатор не може лишитися без улюбленця і спрямовує усі свої сили для того, щоб оживити цуценя. Однак Бублик-зомбі чомусь нікому не сподобався і всіх лякає. Доведеться докласти чимало зусиль, щоб довести, що новий песик такий самий крутий, як і раніше.


Тривалість: 01:26:56
Якість:
Відео:
кодек:
розмір кадру: 1024x554
бітрейт: 1958 кб/с

Аудіо # 1:
мова: українська
переклад: професійний дубльований
кодек: 5.1
бітрейт: 448 кб/с

Аудіо # 2:
мова: англійська
переклад: оригінал
кодек: 5.1
бітрейт: 448 кб/с

Субтитри # 1:
мова: українська
тип: програмні (м'які)
формат: *.srt

Субтитри # 2:
мова: англійська
тип: програмні (м'які)
формат: *.srt
MI
General
Unique ID : 186098079104121480565214653423612344627 (0x8C012FB2458101894C927375BCF03933)
Complete name : Z:\Мультфільми AVC\Frankenweenie (2012) AVC [UKR_ENG] [Hurtom].
Format :
Format version : Version 4
File size : 1.73 GiB
Duration : 1 h 26 min
Overall bit rate : 2 856 kb/s
Movie name : Франкенвіні / Frankenweenie (2012) AVC [UKR_ENG] [Hurtom]
Encoded date : UTC 2020-06-08 12:59:57
Writing application : v46.0.0 ('No Deeper Escape') 64-bit
Writing library : libebml v1.3.10 + v1.5.2
Cover : Yes
Attachments : cover.jpg

Video
ID : 1
Format : AVC
Format/Info : Advanced Video Codec
Format profile : [email protected]
Format settings : CABAC / 13 Ref Frames
Format settings, CABAC : Yes
Format settings, Reference : 13 frames
Codec ID : V_MPEG4/ISO/AVC
Duration : 1 h 26 min
Bit rate : 1 958 kb/s
Width : 1 024 pixels
Height : 554 pixels
Display aspect ratio : 1.85:1
Frame rate mode : Constant
Frame rate : 23.976 FPS
Color space : YUV
Chroma subsampling : 4:2:0
Bit depth : 8 bits
Scan type : Progressive
Bits/(Pixel*Frame) : 0.144
Stream size : 1.19 GiB (69%)
Title : Франкенвини
Writing library : core 125 r2208 d9d2288
Encoding settings : cabac=1 / ref=13 / deblock=1:-1:-1 / analyse=0x3:0x133 / me=umh / subme=9 / psy=1 / psy_rd=1.05:0.00 / mixed_ref=1 / me_range=32 / chroma_me=1 / trellis=2 / 8x8dct=1 / cqm=0 / deadzone=21,11 / fast_pskip=0 / chroma_qp_offset=-2 / threads=6 / lookahead_threads=1 / sliced_threads=0 / nr=0 / decimate=1 / interlaced=0 / bluray_compat=0 / constrained_intra=0 / bframes=14 / b_pyramid=2 / b_adapt=2 / b_bias=0 / direct=3 / weightb=1 / open_gop=0 / weightp=2 / keyint=240 / keyint_min=23 / scenecut=40 / intra_refresh=0 / rc_lookahead=150 / rc=2pass / mbtree=1 / bitrate=1958 / ratetol=1.0 / qcomp=0.70 / qpmin=0 / qpmax=62 / qpstep=4 / cplxblur=20.0 / qblur=0.5 / vbv_maxrate=20000 / vbv_bufsize=25000 / nal_hrd=none / ip_ratio=1.35 / aq=1:0.80
Language : English
Default : Yes
Forced : No

Audio #1
ID : 2
Format : AC-3
Format/Info : Audio Coding 3
Commercial name : Dolby Digital
Codec ID : A_AC3
Duration : 1 h 26 min
Bit rate mode : Constant
Bit rate : 448 kb/s
Channel(s) : 6 channels
Channel layout : L R C LFE Ls Rs
Sampling rate : 48.0 kHz
Frame rate : 31.250 FPS (1536 SPF)
Compression mode : Lossy
Stream size : 279 MiB (16%)
Title : [UKR-DUB]
Language : Ukrainian
Service kind : Complete Main
Default : Yes
Forced : Yes

Audio #2
ID : 3
Format : AC-3
Format/Info : Audio Coding 3
Commercial name : Dolby Digital
Codec ID : A_AC3
Duration : 1 h 26 min
Bit rate mode : Constant
Bit rate : 448 kb/s
Channel(s) : 6 channels
Channel layout : L R C LFE Ls Rs
Sampling rate : 48.0 kHz
Frame rate : 31.250 FPS (1536 SPF)
Compression mode : Lossy
Stream size : 279 MiB (16%)
Title : Original
Language : English
Service kind : Complete Main
Default : No
Forced : No

Text #1
ID : 4
Format : UTF-8
Codec ID : S_TEXT/UTF8
Codec ID/Info : UTF-8 Plain Text
Duration : 1 h 19 min
Bit rate : 48 b/s
Count of elements : 646
Stream size : 28.5 KiB (0%)
Language : Ukrainian
Default : No
Forced : No

Text #2
ID : 5
Format : UTF-8
Codec ID : S_TEXT/UTF8
Codec ID/Info : UTF-8 Plain Text
Duration : 1 h 22 min
Bit rate : 38 b/s
Count of elements : 1008
Stream size : 23.6 KiB (0%)
Language : English
Default : No
Forced : No


Джерело:


 Трекер:    Зареєстрований   

Завантажити / скачати мультфільм українською



відео для новачків



 Зареєстрований:   2020-06-08 15:16
 Розмір:   1.73 GB 
 Оцінка мультфільму:   9.1/10 (Голосів: 13)
   
Інші релізи
bot 
робот


З нами з: 30.09.07
Востаннє: 26.05.05
Повідомлень: 25997

2020-06-07 21:05  
Тему перенесено з Мультфільми до форуму Анонси релізів


staf777

bot 
робот


З нами з: 30.09.07
Востаннє: 26.05.05
Повідомлень: 25997

2020-06-08 15:16  
Тему перенесено з Анонси релізів до форуму Фільми


staf777

747 
VIP


З нами з: 21.05.10
Востаннє: 29.10.20
Повідомлень: 337

2020-06-08 18:09  
bot написано:
Тему перенесено з Мультфільми

а розділом часом не помилились, можливо варто до мультів перенести

W3223W 
Свій


З нами з: 07.11.18
Востаннє: 26.10.20
Повідомлень: 83

2020-06-08 18:37  
Бляха муха це фільм для діток? Дісней уху їв?
bot 
робот


З нами з: 30.09.07
Востаннє: 26.05.05
Повідомлень: 25997

2020-06-08 20:21  
Тему перенесено з Фільми до форуму Мультфільми


staf777

Ваш часовий пояс: GMT + 2 Години

Нова тема   Відповісти