Любов і дружба / Love & Friendship (2016) AVC Ukr/Eng | Sub Eng

Нові коментарі

Нова тема   Відповісти
Автор Повідомлення
staf777 
Відео Гуртом - підтримка та поширення
Відео Гуртом - підтримка та поширення


З нами з: 16.11.16
Востаннє: 05.07.20
Повідомлень: 3811

2020-06-07 20:16  
Любов і дружба / Love & Friendship (2016) AVC Ukr/Eng | Sub Eng

Любов і дружба / Love & Friendship (2016) AVC Ukr/Eng | Sub Eng


Жанр: драма, мелодрама, комедія
Країна: США, Велика Британія



Кінокомпанія: Blinder Films, Centre National de la Cinématographie et de l'Image An imée, Chic Films, Protagonist Pictures, Revolver Films, Westerly Films
Режисер: Уіт Стіллман
Актори: Кейт Бекінсейл, Морфидд Кларк, Том Беннетт, Дженн Мюррей, Лохлейнн О’Меарайн, Софи Радермахер, Хлоя Севіньї

Сюжет:
Сюзен Вернон — 35-річна вдова, яка намагається влаштуватися в житті, чіпляючись за різних чоловіків. Після того, як родовий маєток її померлого чоловіка продається за борги, вона їде в провінцію до його родичів, сподіваючись знайти вихід з ситуації, що склалася.


Тривалість: 01:33:18
Якість: AVC
Відео:
кодек:
розмір кадру: 1024x552
бітрейт: 2692 кб/с

Аудіо # 1:
мова: українська
переклад: багатоголосий закадровий
кодек: 5.1
бітрейт: 448 кб/с

Аудіо # 2:
мова: англійська
переклад: оригінал
кодек: 5.1
бітрейт: 448 кб/с

Субтитри # 1-2:
мова: англійська
тип: програмні (м'які)
формат: *.srt
MI
General
Unique ID : 50297635735773107666508403031510732200 (0x25D6F8E74FDDDAA20D27F31E93F5CDA8)
Complete name : Z:\Фільми AVC\Драма\Love & Friendship (2016) [UKR][ENG][Hurtom].
Format :
Format version : Version 4
File size : 2.34 GiB
Duration : 1 h 33 min
Overall bit rate : 3 590 kb/s
Movie name : Любов і дружба / Love & Friendship (2016) [UKR][ENG][Hurtom]
Encoded date : UTC 2020-06-07 17:02:07
Writing application : v46.0.0 ('No Deeper Escape') 64-bit
Writing library : libebml v1.3.10 + v1.5.2
Cover : Yes
Attachments : cover.jpg

Video
ID : 1
Format : AVC
Format/Info : Advanced Video Codec
Format profile : [email protected]
Format settings : CABAC / 12 Ref Frames
Format settings, CABAC : Yes
Format settings, Reference : 12 frames
Codec ID : V_MPEG4/ISO/AVC
Duration : 1 h 33 min
Bit rate : 2 692 kb/s
Width : 1 024 pixels
Height : 552 pixels
Display aspect ratio : 1.85:1
Frame rate mode : Constant
Frame rate : 23.976 (23976/1000) FPS
Color space : YUV
Chroma subsampling : 4:2:0
Bit depth : 8 bits
Scan type : Progressive
Bits/(Pixel*Frame) : 0.199
Stream size : 1.75 GiB (75%)
Writing library : core 146 r2538 121396c
Encoding settings : cabac=1 / ref=12 / deblock=1:-3:-3 / analyse=0x3:0x113 / me=umh / subme=11 / psy=1 / psy_rd=1.00:0.00 / mixed_ref=1 / me_range=48 / chroma_me=1 / trellis=2 / 8x8dct=1 / cqm=0 / deadzone=21,11 / fast_pskip=0 / chroma_qp_offset=-2 / threads=12 / lookahead_threads=3 / sliced_threads=0 / nr=0 / decimate=0 / interlaced=0 / bluray_compat=0 / constrained_intra=0 / bframes=11 / b_pyramid=2 / b_adapt=2 / b_bias=0 / direct=3 / weightb=1 / open_gop=0 / weightp=2 / keyint=240 / keyint_min=23 / scenecut=40 / intra_refresh=0 / rc_lookahead=40 / rc=2pass / mbtree=1 / bitrate=2692 / ratetol=1.0 / qcomp=0.60 / qpmin=0 / qpmax=69 / qpstep=4 / cplxblur=20.0 / qblur=0.5 / vbv_maxrate=50000 / vbv_bufsize=62500 / nal_hrd=none / filler=0 / ip_ratio=1.40 / aq=1:1.00
Language : English
Default : Yes
Forced : No

Audio #1
ID : 2
Format : AC-3
Format/Info : Audio Coding 3
Commercial name : Dolby Digital
Codec ID : A_AC3
Duration : 1 h 33 min
Bit rate mode : Constant
Bit rate : 448 kb/s
Channel(s) : 6 channels
Channel layout : L R C LFE Ls Rs
Sampling rate : 48.0 kHz
Frame rate : 31.250 FPS (1536 SPF)
Compression mode : Lossy
Stream size : 299 MiB (12%)
Title : [UKR-MVO]
Language : Ukrainian
Service kind : Complete Main
Default : Yes
Forced : Yes

Audio #2
ID : 3
Format : AC-3
Format/Info : Audio Coding 3
Commercial name : Dolby Digital
Codec ID : A_AC3
Duration : 1 h 33 min
Bit rate mode : Constant
Bit rate : 448 kb/s
Channel(s) : 6 channels
Channel layout : L R C LFE Ls Rs
Sampling rate : 48.0 kHz
Frame rate : 31.250 FPS (1536 SPF)
Compression mode : Lossy
Stream size : 299 MiB (12%)
Title : [Original]
Language : English
Service kind : Complete Main
Default : No
Forced : No

Text #1
ID : 4
Format : UTF-8
Codec ID : S_TEXT/UTF8
Codec ID/Info : UTF-8 Plain Text
Duration : 1 h 29 min
Bit rate : 91 b/s
Count of elements : 1470
Stream size : 59.8 KiB (0%)
Title : full
Language : English
Default : No
Forced : No

Text #2
ID : 5
Format : UTF-8
Codec ID : S_TEXT/UTF8
Codec ID/Info : UTF-8 Plain Text
Duration : 1 h 29 min
Bit rate : 95 b/s
Count of elements : 1549
Stream size : 62.6 KiB (0%)
Title : SDH
Language : English
Default : No
Forced : No

Menu
00:00:00.000 : en:Chapter 1
00:06:18.962 : en:Chapter 2
00:14:33.581 : en:Chapter 3
00:22:33.686 : en:Chapter 4
00:29:48.620 : en:Chapter 5
00:34:52.382 : en:Chapter 6
00:41:29.237 : en:Chapter 7
00:47:13.956 : en:Chapter 8
00:51:01.225 : en:Chapter 9
00:53:26.745 : en:Chapter 10
00:59:29.399 : en:Chapter 11
01:04:45.131 : en:Chapter 12
01:07:36.761 : en:Chapter 13
01:13:18.769 : en:Chapter 14
01:19:51.036 : en:Chapter 15
01:25:54.483 : en:Chapter 16


Джерело:


 Трекер:    Зареєстрований   

Завантажити / скачати фільм українською



відео для новачків



 Зареєстрований:   2020-06-07 20:24
 Розмір:   2.34 GB 
 Оцінка фільму:   9/10 (Голосів: 10)
   
Інші релізи
   Любов і дружба / Love & Friendship (2016) AngryBirdsUA  6 / 0   1.45 GB   2016-09-17 15:24 
   Любов і дружба / Love & Friendship (2016) 720p Ukr/Eng | Sub Eng 11FrYkT  4 / 0   4.87 GB   2016-09-17 15:24 
Ваш часовий пояс: GMT + 2 Години

Нова тема   Відповісти