Червоні черевички та семеро гномів / Red Shoes and the Seven Dwarfs (2019) 720p Ukr/Eng

Нові коментарі

Нова тема   Відповісти
Автор Повідомлення
Anonymous 







2020-06-07 18:21  
Червоні черевички та семеро гномів / Red Shoes and the Seven Dwarfs (2019) 720p Ukr/Eng



Жанр: анімація, екшн, пригодницький
Країна: Південна Корея



Кінокомпанія: Locus Creative Studios, Next Entertainment World
Режисер: Сон Го Гонґ
Ролі озвучують: Хлоя Морец, Патрік Варбертон, Джина Гершон, Сем Клафлін.

Сюжет:
Сюжет пародійного мультфільму пов’язує дві класичні казки Червона шапочка та Білосніжка й сім гномів. Одного разу на егоїстичних і самозакоханих принців було накладено закляття, яке перетворило їх у зелених гномів. Щоби зняти закляття, маленьким героям необхідно знайти пару червоних черевичків. З їхньою допомогою принци знову зможуть повернутися до нормального життя.


Тривалість: 01:32:00
Якість: 720p
Відео:
кодек:
розмір кадру: 1280 x 690
бітрейт: 6587 кб/с

Аудіо # 1:
мова: українська
переклад: професійний дубльований
кодек: 5.1
бітрейт: 384 кб/с

Аудіо # 2:
мова: українська
переклад: професійний дубльований
кодек: 2.0
бітрейт: 192 кб/с

Аудіо # 3:
мова: англійська
переклад: оригінал
кодек: 5.1
бітрейт: 640 кб/с
Скріншоти


MI
General
Complete name : Red Shoes and the Seven Dwarfs (2019) 720p [ukr, eng] [Hurtom].
Format :
Format version : Version 4
File size : 5.01 GiB
Duration : 1 h 32 min
Overall bit rate : 7 793 kb/s
Movie name : Червоні черевички та семеро гномів / Red Shoes and the Seven Dwarfs (2019)
Encoded date : UTC 2021-01-24 18:16:19
Writing application : v30.1.0 ('Forever And More') 64-bit
Writing library : libebml v1.3.6 + v1.4.9
Cover : Yes
Attachments : cover.jpg

Video
ID : 1
Format : AVC
Format/Info : Advanced Video Codec
Format profile : [email protected]
Format settings : CABAC / 9 Ref Frames
Format settings, CABAC : Yes
Format settings, RefFrames : 9 frames
Codec ID : V_MPEG4/ISO/AVC
Duration : 1 h 32 min
Bit rate : 6 587 kb/s
Width : 1 280 pixels
Height : 690 pixels
Display aspect ratio : 1.85:1
Frame rate mode : Constant
Frame rate : 23.976 (24000/1001) FPS
Color space : YUV
Chroma subsampling : 4:2:0
Bit depth : 8 bits
Scan type : Progressive
Bits/(Pixel*Frame) : 0.311
Stream size : 4.23 GiB (84%)
Writing library : core 142 r2431+42 c69a006 tMod [[email protected] X86_64]
Encoding settings : cabac=1 / ref=9 / deblock=1:-2:-2 / analyse=0x3:0x133 / me=umh / subme=10 / psy=1 / fade_compensate=0.00 / psy_rd=1.00:0.00 / mixed_ref=1 / me_range=32 / chroma_me=1 / trellis=2 / 8x8dct=1 / cqm=0 / deadzone=21,11 / fast_pskip=0 / chroma_qp_offset=-2 / threads=24 / lookahead_threads=4 / sliced_threads=0 / nr=0 / decimate=0 / interlaced=0 / bluray_compat=0 / constrained_intra=0 / fgo=0 / bframes=8 / b_pyramid=2 / b_adapt=2 / b_bias=0 / direct=3 / weightb=1 / open_gop=0 / weightp=2 / keyint=240 / keyint_min=23 / scenecut=40 / intra_refresh=0 / rc_lookahead=50 / rc=2pass / mbtree=0 / bitrate=6587 / ratetol=1.0 / qcomp=0.60 / qpmin=0:0:0 / qpmax=51:51:51 / qpstep=4 / cplxblur=20.0 / qblur=0.5 / vbv_maxrate=50000 / vbv_bufsize=62500 / nal_hrd=none / filler=0 / ip_ratio=1.40 / pb_ratio=1.30 / aq=3:0.80 / aq-sensitivity=10.00 / aq-factor=1.00:1.00:1.00 / aq2=0 / aq3=0
Language : English
Default : Yes
Forced : No

Audio #1
ID : 2
Format : AC-3
Format/Info : Audio Coding 3
Commercial name : Dolby Digital
Codec ID : A_AC3
Duration : 1 h 32 min
Bit rate mode : Constant
Bit rate : 384 kb/s
Channel(s) : 6 channels
Channel layout : L R C LFE Ls Rs
Sampling rate : 48.0 kHz
Frame rate : 31.250 FPS (1536 SPF)
Bit depth : 16 bits
Compression mode : Lossy
Stream size : 253 MiB (5%)
Title : 5.1 | 384
Language : Ukrainian
Service kind : Complete Main
Default : Yes
Forced : No

Audio #2
ID : 3
Format : AC-3
Format/Info : Audio Coding 3
Commercial name : Dolby Digital
Codec ID : A_AC3
Duration : 1 h 32 min
Bit rate mode : Constant
Bit rate : 192 kb/s
Channel(s) : 2 channels
Channel layout : L R
Sampling rate : 48.0 kHz
Frame rate : 31.250 FPS (1536 SPF)
Bit depth : 16 bits
Compression mode : Lossy
Stream size : 126 MiB (2%)
Title : 2.0 | 192
Language : Ukrainian
Service kind : Complete Main
Default : No
Forced : No

Audio #3
ID : 4
Format : AC-3
Format/Info : Audio Coding 3
Commercial name : Dolby Digital
Codec ID : A_AC3
Duration : 1 h 32 min
Bit rate mode : Constant
Bit rate : 640 kb/s
Channel(s) : 6 channels
Channel layout : L R C LFE Ls Rs
Sampling rate : 48.0 kHz
Frame rate : 31.250 FPS (1536 SPF)
Bit depth : 16 bits
Compression mode : Lossy
Stream size : 421 MiB (8%)
Title : 5.1 | 640
Language : English
Service kind : Complete Main
Default : No
Forced : No

Menu
00:00:00.000 : en:Chapter 01
00:07:26.112 : en:Chapter 02
00:14:32.037 : en:Chapter 03
00:20:54.336 : en:Chapter 04
00:27:22.182 : en:Chapter 05
00:33:33.720 : en:Chapter 06
00:43:24.018 : en:Chapter 07
00:50:41.872 : en:Chapter 08
00:56:27.509 : en:Chapter 09
01:03:31.599 : en:Chapter 10
01:12:52.701 : en:Chapter 11
01:24:01.077 : en:Chapter 12
Подяка за доріжку п. leicheman
Джерело:
Особиста оцінка: 0 - не дивився


 Трекер:    Зареєстрований   

Завантажити / скачати мультфільм українською



відео для новачків



 Зареєстрований:   2021-01-30 18:38
 Розмір:   5.01 GB 
 Оцінка мультфільму:   9.7/10 (Голосів: 21)
   
AMOROSO 
Свій


З нами з: 01.01.12
Востаннє: 01.03.21
Повідомлень: 50

2020-09-08 22:20  
Дітям сподобався, варто подивитися
N1ka 
Новенький


З нами з: 18.05.20
Востаннє: 27.02.21
Повідомлень: 2

2021-01-02 15:25  
Unable to read torrent
Drool 
VIP


З нами з: 17.04.10
Востаннє: 03.03.21
Повідомлень: 1559

2021-01-03 10:54  
N1ka написано:
Unable to read torrent

You rating is a 0.01.

N1ka 
Новенький


З нами з: 18.05.20
Востаннє: 27.02.21
Повідомлень: 2

2021-01-03 12:34  
So what, all the other torrents reading perfectly well, and this doesnt reading.
Drool 
VIP


З нами з: 17.04.10
Востаннє: 03.03.21
Повідомлень: 1559

2021-01-09 22:09  
N1ka написано:
So what, all the other torrents reading perfectly well, and this doesnt reading.

However, try to raise your rating above 0.05...

11FrYkT 
Модератор відео


З нами з: 20.02.11
Востаннє: 03.03.21
Повідомлень: 7152

2021-01-30 18:39  
додано доріжку АС3 5.1 384
Ваш часовий пояс: GMT + 2 Години

Нова тема   Відповісти