Білал / Bilal: A New Breed of Hero (2015) AVC Ukr/Eng

Нові коментарі

Нова тема   Відповісти
Автор Повідомлення
sergiyko.5 
VIP


З нами з: 25.02.16
Востаннє: 27.10.20
Повідомлень: 3637

2020-06-07 18:10  
Білал / Bilal: A New Breed of Hero (2015) AVC Ukr/Eng


Білал / Bilal: A New Breed of Hero (2015) AVC Ukr/Eng

Жанр: пригодницький
Країна: ОАЕ
Режисер: Хуррам Х. Алаві, Айман Джамал

Сюжет:
Сюжет барвистого мультфільму переносить глядачів у VI століття до нашої ери. Ми опиняємося на просторах Аравійської пустелі, де разом з матір'ю і сестрою живе Білал - хлопчик, якому уготовано велике майбутнє. Він мріє стати героєм, думаючи, що в цьому йому допоможе меч. Звертаючи увагу на міркування сина, мати вчить його, що насильство - не єдиний спосіб домогтися бажаного результату.




Прем'єра в Україні: 08.11.2018
Світова прем'єра: 09.12.2015


Рейтинг MPAA: PG-13 (дітям до 13 років переглядати небажено)

Тривалість: 01:49:39
Якість:

Відео: кодек: Н.264 розмір кадру: 1024 x 432 бітрейт: 1100 кб/с
Аудіо: мова: українська переклад: професійний дубльований кодек: 2.0 бітрейт: 192 кб/с
Аудіо: мова: англійська переклад: оригінал кодек: 5.1 бітрейт: 640 кб/с
Про файл:
General
Unique ID : 178645039105343201425704537548929686074 (0x8665C87430AD5F57835829274E84DA3A)
Complete name : D:\Documents\Torrents\MULTSER_2\Bilal.A New Breed of Hero.2015..
Format :
Format version : Version 4
File size : 1.44 GiB
Duration : 1 h 49 min
Overall bit rate : 1 885 kb/s
Movie name : Bilal. A New Breed of Hero 2015 rip by sergiyko
Encoded date : UTC 2020-06-07 18:46:24
Writing application : v47.0.0 ('Black Flag') 64-bit
Writing library : libebml v1.3.10 + v1.5.2
Cover : Yes
Attachments : cover.jpeg

Video
ID : 1
Format : AVC
Format/Info : Advanced Video Codec
Format profile : [email protected]
Format settings : CABAC / 10 Ref Frames
Format settings, CABAC : Yes
Format settings, Reference : 10 frames
Codec ID : V_MPEG4/ISO/AVC
Duration : 1 h 49 min
Bit rate : 1 051 kb/s
Width : 1 024 pixels
Height : 432 pixels
Display aspect ratio : 2.40:1
Frame rate mode : Constant
Frame rate : 23.976 (24000/1001) FPS
Color space : YUV
Chroma subsampling : 4:2:0
Bit depth : 8 bits
Scan type : Progressive
Bits/(Pixel*Frame) : 0.099
Stream size : 824 MiB (56%)
Title : Bilal. A New Breed of Hero 2015
Writing library : core 159
Encoding settings : cabac=1 / ref=10 / deblock=1:0:0 / analyse=0x3:0x133 / me=umh / subme=10 / psy=1 / psy_rd=1.00:0.00 / mixed_ref=1 / me_range=24 / chroma_me=1 / trellis=2 / 8x8dct=1 / cqm=0 / deadzone=21,11 / fast_pskip=1 / chroma_qp_offset=-2 / threads=13 / lookahead_threads=2 / sliced_threads=0 / nr=0 / decimate=1 / interlaced=0 / bluray_compat=0 / constrained_intra=0 / bframes=8 / b_pyramid=2 / b_adapt=2 / b_bias=0 / direct=3 / weightb=1 / open_gop=0 / weightp=2 / keyint=250 / keyint_min=23 / scenecut=40 / intra_refresh=0 / rc_lookahead=60 / rc=crf / mbtree=1 / crf=20.0 / qcomp=0.60 / qpmin=0 / qpmax=69 / qpstep=4 / ip_ratio=1.40 / aq=1:1.00
Language : English
Default : Yes
Forced : No

Audio #1
ID : 2
Format : AC-3
Format/Info : Audio Coding 3
Commercial name : Dolby Digital
Codec ID : A_AC3
Duration : 1 h 49 min
Bit rate mode : Constant
Bit rate : 192 kb/s
Channel(s) : 2 channels
Channel layout : L R
Sampling rate : 48.0 kHz
Frame rate : 31.250 FPS (1536 SPF)
Compression mode : Lossy
Stream size : 151 MiB (10%)
Title : DUB 2ch | ТЕТ
Language : Ukrainian
Service kind : Complete Main
Default : Yes
Forced : Yes

Audio #2
ID : 3
Format : AC-3
Format/Info : Audio Coding 3
Commercial name : Dolby Digital
Codec ID : A_AC3
Duration : 1 h 49 min
Bit rate mode : Constant
Bit rate : 640 kb/s
Channel(s) : 6 channels
Channel layout : L R C LFE Ls Rs
Sampling rate : 48.0 kHz
Frame rate : 31.250 FPS (1536 SPF)
Compression mode : Lossy
Stream size : 502 MiB (34%)
Language : English
Service kind : Complete Main
Default : No
Forced : No

Menu
00:00:00.000 : en:Chapter 01
00:10:31.005 : en:Chapter 02
00:19:39.428 : en:Chapter 03
00:29:25.221 : en:Chapter 04
00:41:30.446 : en:Chapter 05
00:48:54.514 : en:Chapter 06
00:57:01.167 : en:Chapter 07
01:06:09.215 : en:Chapter 08
01:16:42.264 : en:Chapter 09
01:30:26.421 : en:Chapter 10
01:39:44.144 : en:Chapter 11
01:45:25.902 : en:Chapter 12
Скріншоти:


Запис/зведення/ріп: sergiyko


 Трекер:    Зареєстрований   

Завантажити / скачати мультфільм українською



відео для новачків



 Зареєстрований:   2020-06-08 01:12
 Розмір:   1.44 GB 
 Оцінка мультфільму:   8.3/10 (Голосів: 12)
   
Інші релізи
   Білал / Bilal: A New Breed of Hero (2015) 1080p Ukr/Eng sergiyko.5  7 / 0   6.37 GB   2020-06-08 01:09 
bot 
робот


З нами з: 30.09.07
Востаннє: 26.05.05
Повідомлень: 25976

2020-06-07 18:10  
Тему перенесено з Мультфільми до форуму Анонси релізів


sergiyko.5

bot 
робот


З нами з: 30.09.07
Востаннє: 26.05.05
Повідомлень: 25976

2020-06-07 20:53  
Тему перенесено з Анонси релізів до форуму Мультфільми


sergiyko.5

raman2325 
Новенький


З нами з: 09.01.15
Востаннє: 25.10.20
Повідомлень: 12

2020-08-20 15:19  
Сподобався. Моя оцінка 10/10
77997997 
VIP


З нами з: 26.02.13
Востаннє: 27.10.20
Повідомлень: 1160

2020-08-20 19:18  
Наша 5.1 доріжка: - https://itunes.apple.com/ua/movie/id1518442994/
Ваш часовий пояс: GMT + 2 Години

Нова тема   Відповісти