Білал / Bilal: A New Breed of Hero (2015) 1080p Ukr/Eng

Нові коментарі

Нова тема   Відповісти
Автор Повідомлення
sergiyko.5 
Забанено
Забанено


З нами з: 25.02.16
Востаннє: 29.10.20
Повідомлень: 3648

2020-06-07 18:01  
Білал / Bilal: A New Breed of Hero (2015) 1080p Ukr/Eng


Білал / Bilal: A New Breed of Hero (2015) 1080p Ukr/Eng

Жанр: пригодницький, бойовик
Країна: ОАЕ, США, Швейцарія
Кінокомпанія: Barajoun Entertainment, Jeridoo Universe, Resnick Interactive Development
Режисер: Хуррам Х. Алаві, Айман Джамал
Актори: Адевале Акіноє-Агбаже, Ієн МакШейн, Чайна Енн МакКлейн, Томас Ієн Ніколас, Майкл Гросс ...

Сюжет:
Ще змалечку хлопчисько Білал мріє про славу великого воїна, що ширилась би світом. Та його доля вирішила інакше. Він разом з молодшою сестрою потрапляє до полону ворогів, які вбили маму малюків.

Хлопчик розуміє, що тепер життя його самого та маленької сестри в його руках. Маленький герой звільняється з полону та ця подія назавжди залишає відбиток у його серці.

Проходять роки і Білал перетворюється на дорослого чоловіка, який знаходить в собі сміливість і сили змінити своє життя в кращу сторону. Крім цього, він живе думкою про помсту за смерть рідної людини.




Прем'єра в Україні: 08.11.2018
Світова прем'єра: 09.12.2015


Рейтинг MPAA: PG-13 (дітям до 13 років переглядати небажено)

Тривалість: 01:49:39
Якість:

Відео: кодек: Н.264 розмір кадру: 1920 x 804 бітрейт: 7500 кб/с
Аудіо: мова: українська переклад: професійний дубльований кодек: 2.0 бітрейт: 192 кб/с
Аудіо: мова: англійська переклад: оригінал кодек: 5.1 бітрейт: 640 кб/с
Про файл:
General
Unique ID : 186896319512375467960419792810389329704 (0x8C9AEBFCB0291E4141BBDE6BAA64D728)
Complete name : D:\Documents\Torrents\MULTSER_2\Bilal.A New Breed of Hero.2015.1080p..
Format :
Format version : Version 4
File size : 6.37 GiB
Duration : 1 h 49 min
Overall bit rate : 8 311 kb/s
Movie name : Bilal. A New Breed of Hero 2015 by sergiyko
Encoded date : UTC 2020-06-07 17:44:14
Writing application : v47.0.0 ('Black Flag') 64-bit
Writing library : libebml v1.3.10 + v1.5.2
Cover : Yes
Attachments : cover.jpeg

Video
ID : 1
Format : AVC
Format/Info : Advanced Video Codec
Format profile : [email protected]
Format settings : CABAC / 4 Ref Frames
Format settings, CABAC : Yes
Format settings, Reference : 4 frames
Codec ID : V_MPEG4/ISO/AVC
Duration : 1 h 49 min
Bit rate : 7 477 kb/s
Width : 1 920 pixels
Height : 804 pixels
Display aspect ratio : 2.40:1
Frame rate mode : Constant
Frame rate : 23.976 (24000/1001) FPS
Color space : YUV
Chroma subsampling : 4:2:0
Bit depth : 8 bits
Scan type : Progressive
Bits/(Pixel*Frame) : 0.202
Stream size : 5.73 GiB (90%)
Title : Bilal.A New Breed of Hero 2015
Writing library : core 148 r2795M aaa9aa8
Encoding settings : cabac=1 / ref=4 / deblock=1:1:1 / analyse=0x3:0x113 / me=umh / subme=8 / psy=1 / psy_rd=0.50:0.00 / mixed_ref=1 / me_range=32 / chroma_me=1 / trellis=2 / 8x8dct=1 / cqm=0 / deadzone=21,11 / fast_pskip=1 / chroma_qp_offset=-2 / threads=25 / lookahead_threads=3 / sliced_threads=0 / nr=0 / decimate=1 / interlaced=0 / bluray_compat=0 / constrained_intra=0 / bframes=3 / b_pyramid=2 / b_adapt=2 / b_bias=0 / direct=3 / weightb=1 / open_gop=0 / weightp=2 / keyint=240 / keyint_min=24 / scenecut=40 / intra_refresh=0 / rc_lookahead=50 / rc=crf / mbtree=1 / crf=14.0 / qcomp=0.60 / qpmin=0 / qpmax=69 / qpstep=4 / ip_ratio=1.40 / aq=3:0.60
Language : English
Default : Yes
Forced : No

Audio #1
ID : 2
Format : AC-3
Format/Info : Audio Coding 3
Commercial name : Dolby Digital
Codec ID : A_AC3
Duration : 1 h 49 min
Bit rate mode : Constant
Bit rate : 192 kb/s
Channel(s) : 2 channels
Channel layout : L R
Sampling rate : 48.0 kHz
Frame rate : 31.250 FPS (1536 SPF)
Compression mode : Lossy
Stream size : 151 MiB (2%)
Title : DUB 2ch | ТЕТ
Language : Ukrainian
Service kind : Complete Main
Default : Yes
Forced : Yes

Audio #2
ID : 3
Format : AC-3
Format/Info : Audio Coding 3
Commercial name : Dolby Digital
Codec ID : A_AC3
Duration : 1 h 49 min
Bit rate mode : Constant
Bit rate : 640 kb/s
Channel(s) : 6 channels
Channel layout : L R C LFE Ls Rs
Sampling rate : 48.0 kHz
Frame rate : 31.250 FPS (1536 SPF)
Compression mode : Lossy
Stream size : 502 MiB (8%)
Language : English
Service kind : Complete Main
Default : No
Forced : No

Menu
00:00:00.000 : en:Chapter 01
00:10:31.005 : en:Chapter 02
00:19:39.428 : en:Chapter 03
00:29:25.221 : en:Chapter 04
00:41:30.446 : en:Chapter 05
00:48:54.514 : en:Chapter 06
00:57:01.167 : en:Chapter 07
01:06:09.215 : en:Chapter 08
01:16:42.264 : en:Chapter 09
01:30:26.421 : en:Chapter 10
01:39:44.144 : en:Chapter 11
01:45:25.902 : en:Chapter 12
Скріншоти:


Запис/зведення: sergiyko


 Трекер:    Зареєстрований   

Завантажити / скачати мультфільм українською



відео для новачків



 Зареєстрований:   2020-06-08 01:09
 Розмір:   6.37 GB 
 Оцінка мультфільму:   8.9/10 (Голосів: 8)
   
Інші релізи
   Білал / Bilal: A New Breed of Hero (2015) 1080p Ukr/Eng | Sub Eng staf777  5 / 0   6.19 GB   2021-01-03 17:27 
   Білал / Bilal: A New Breed of Hero (2015) AVC Ukr | Sub Eng staf777  4 / 0   2.13 GB   2020-12-31 20:57 
   Білал / Bilal: A New Breed of Hero (2015) 720p Ukr/Eng | Sub Eng staf777  2 / 0   4.37 GB   2020-12-31 19:25 
   Білал / Bilal: A New Breed of Hero (2015) AVC Ukr/Eng sergiyko.5  10 / 0   1.44 GB   2020-06-08 01:12 
bot 
робот


З нами з: 30.09.07
Востаннє: 26.05.05
Повідомлень: 27331

2020-06-07 18:01  
Тему перенесено з Мультфільми в HD до форуму Анонси релізів


sergiyko.5

bot 
робот


З нами з: 30.09.07
Востаннє: 26.05.05
Повідомлень: 27331

2020-06-07 19:53  
Тему перенесено з Анонси релізів до форуму Мультфільми в HD


sergiyko.5

xslim 
Відео Гуртом - фільмокрай
Відео Гуртом - фільмокрай


З нами з: 04.03.09
Востаннє: 07.03.21
Повідомлень: 1412

2020-06-07 22:38  
А чому спектр звуку ледве 14,5 кГц якщо по ТЕТ було 18 кГц?
sergiyko.5 
Забанено
Забанено


З нами з: 25.02.16
Востаннє: 29.10.20
Повідомлень: 3648

2020-06-07 23:06  
Запис той що маю. З'явиться кращий, оновлю.
xslim 
Відео Гуртом - фільмокрай
Відео Гуртом - фільмокрай


З нами з: 04.03.09
Востаннє: 07.03.21
Повідомлень: 1412

2020-06-08 00:14  
Тоді вже краще використати https://fex.net/uk/s/csrczcx ось цей звук з сайту там хоч 16 кГц
sergiyko.5 
Забанено
Забанено


З нами з: 25.02.16
Востаннє: 29.10.20
Повідомлень: 3648

2020-06-08 01:11  
Як на мене не кращий, але додав уривок озвучки наприкінці який не ввійшов в тб трансляцію.

Торент оновлено.

midnight_man 
Свій


З нами з: 13.10.09
Востаннє: 06.03.21
Повідомлень: 140

2020-06-22 01:07  
Гарний мульт, але не для малечі - з елементами насилля.
Ваш часовий пояс: GMT + 2 Години

Нова тема   Відповісти