Червоні черевички та семеро гномів / Red Shoes and the Seven Dwarfs (2019) Remux 1080p Ukr/Eng

Нові коментарі

Нова тема   Відповісти
Автор Повідомлення
Anonymous 







2020-06-07 17:12  
Червоні черевички та семеро гномів / Red Shoes and the Seven Dwarfs (2019) Remux 1080p Ukr/Eng



Жанр: анімація, екшн, пригодницький
Країна: Південна Корея



Кінокомпанія: Locus Creative Studios, Next Entertainment World
Режисер: Сон Го Гонґ
Ролі озвучують: Хлоя Морец, Патрік Варбертон, Джина Гершон, Сем Клафлін.

Сюжет:
Сюжет пародійного мультфільму пов’язує дві класичні казки Червона шапочка та Білосніжка й сім гномів. Одного разу на егоїстичних і самозакоханих принців було накладено закляття, яке перетворило їх у зелених гномів. Щоби зняти закляття, маленьким героям необхідно знайти пару червоних черевичків. З їхньою допомогою принци знову зможуть повернутися до нормального життя.


Тривалість: 01:32:00
Якість: Blu-Ray Remux 1080p
Відео:
кодек:
розмір кадру: 1920x1080
бітрейт: 32100 кб/с

Аудіо # 1:
мова: українська
переклад: професійний дубльований
кодек: 5.1
бітрейт: 384 кб/с

Аудіо # 2:
мова: українська
переклад: професійний дубльований
кодек: 2.0
бітрейт: 192 кб/с

Аудіо # 3:
мова: англійська
переклад: оригінал
кодек: 5.1
бітрейт: 448 кб/с

Аудіо # 4:
мова: англійська
переклад: оригінал
кодек: -HD MA 5.1
бітрейт: 3847 кб/с
Скріншоти



MI
General
Complete name : Red Shoes and the Seven Dwarfs (2019) Blu-Ray Remux 1080p {UKR_ENG] [Hurtom].
Format :
Format version : Version 4
File size : 23.8 GiB
Duration : 1 h 32 min
Overall bit rate mode : Variable
Overall bit rate : 37.0 Mb/s
Movie name : Червоні черевички та семеро гномів / Red Shoes and the Seven Dwarfs (2019)
Encoded date : UTC 2021-01-24 16:54:51
Writing application : v30.1.0 ('Forever And More') 64-bit
Writing library : libebml v1.3.6 + v1.4.9
Cover : Yes
Attachments : cover.jpg

Video
ID : 1
Format : AVC
Format/Info : Advanced Video Codec
Format profile : [email protected]
Format settings : CABAC / 3 Ref Frames
Format settings, CABAC : Yes
Format settings, RefFrames : 3 frames
Codec ID : V_MPEG4/ISO/AVC
Duration : 1 h 32 min
Bit rate mode : Variable
Bit rate : 32.1 Mb/s
Maximum bit rate : 35.0 Mb/s
Width : 1 920 pixels
Height : 1 080 pixels
Display aspect ratio : 16:9
Frame rate mode : Constant
Frame rate : 23.976 (24000/1001) FPS
Color space : YUV
Chroma subsampling : 4:2:0
Bit depth : 8 bits
Scan type : Progressive
Bits/(Pixel*Frame) : 0.646
Stream size : 20.7 GiB (87%)
Language : English
Default : Yes
Forced : No

Audio #1
ID : 2
Format : AC-3
Format/Info : Audio Coding 3
Commercial name : Dolby Digital
Codec ID : A_AC3
Duration : 1 h 32 min
Bit rate mode : Constant
Bit rate : 384 kb/s
Channel(s) : 6 channels
Channel layout : L R C LFE Ls Rs
Sampling rate : 48.0 kHz
Frame rate : 31.250 FPS (1536 SPF)
Bit depth : 16 bits
Compression mode : Lossy
Stream size : 253 MiB (1%)
Title : 5.1 | 384
Language : Ukrainian
Service kind : Complete Main
Default : Yes
Forced : No

Audio #2
ID : 3
Format : AC-3
Format/Info : Audio Coding 3
Commercial name : Dolby Digital
Codec ID : A_AC3
Duration : 1 h 32 min
Bit rate mode : Constant
Bit rate : 192 kb/s
Channel(s) : 2 channels
Channel layout : L R
Sampling rate : 48.0 kHz
Frame rate : 31.250 FPS (1536 SPF)
Bit depth : 16 bits
Compression mode : Lossy
Stream size : 126 MiB (1%)
Title : 2.0 | 192
Language : Ukrainian
Service kind : Complete Main
Default : No
Forced : No

Audio #3
ID : 4
Format : AC-3
Format/Info : Audio Coding 3
Commercial name : Dolby Digital
Codec ID : A_AC3
Duration : 1 h 32 min
Bit rate mode : Constant
Bit rate : 448 kb/s
Channel(s) : 6 channels
Channel layout : L R C LFE Ls Rs
Sampling rate : 48.0 kHz
Frame rate : 31.250 FPS (1536 SPF)
Bit depth : 16 bits
Compression mode : Lossy
Stream size : 295 MiB (1%)
Title : 5.1 | 448
Language : English
Service kind : Complete Main
Default : No
Forced : No

Audio #4
ID : 5
Format : XLL
Format/Info : Digital Theater Systems
Commercial name : -HD Master Audio
Codec ID : A_DTS
Duration : 1 h 32 min
Bit rate mode : Variable
Bit rate : 3 847 kb/s
Channel(s) : 6 channels
Channel layout : C L R Ls Rs LFE
Sampling rate : 48.0 kHz
Frame rate : 93.750 FPS (512 SPF)
Bit depth : 24 bits
Compression mode : Lossless
Stream size : 2.47 GiB (10%)
Title : -HD MA 5.1 | 3847
Language : English
Default : No
Forced : No

Menu
00:00:00.000 : en:Глава 01
00:07:26.488 : en:Глава 02
00:14:31.662 : en:Глава 03
00:20:54.462 : en:Глава 04
00:27:22.099 : en:Глава 05
00:33:33.720 : en:Глава 06
00:43:23.976 : en:Глава 07
00:50:41.956 : en:Глава 08
00:56:27.509 : en:Глава 09
01:03:31.266 : en:Глава 10
01:12:52.702 : en:Глава 11
01:24:00.619 : en:Глава 12
Подяка за доріжку п. leicheman
Джерело:
Особиста оцінка: 0 - не дивився


Золотий реліз (завантажене не впливає на рейтинг)
 Трекер:    Зареєстрований   

Завантажити / скачати мультфільм українською



відео для новачків



 Зареєстрований:   2021-01-30 18:36
 Розмір:   23.78 GB 
 Оцінка мультфільму:   10/10 (Голосів: 7)
   
Barbaroid 
Новенький


З нами з: 02.11.08
Востаннє: 05.03.21
Повідомлень: 14

2020-06-08 13:58  
В описі вірний розмір кадру зазначено? Бо в релізі 720р https://toloka.to/t111496 кадр більший ніж тут.
Anonymous 







2020-06-08 14:13  
Barbaroid написано:
В описі вірний розмір кадру зазначено? Бо в релізі 720р https://toloka.to/t111496 кадр більший ніж тут.

Дякую! Виправив

11FrYkT 
Модератор відео


З нами з: 20.02.11
Востаннє: 07.03.21
Повідомлень: 7153

2021-01-30 18:37  
додано доріжку АС3 5.1 384
Anonymous 







2021-03-05 15:29  
Гарний мульт.
Ваш часовий пояс: GMT + 2 Години

Нова тема   Відповісти