Емма / Emma. (2020) Remux 1080p Ukr/Eng | Sub Eng

Нові коментарі

Нова тема   Відповісти
Останній раз роздавалося Andry680 (2020-07-11)
Автор Повідомлення
Anonymous 







2020-06-07 16:40  
Емма / Emma. (2020) Remux 1080p Ukr/Eng | Sub Eng


«Красива, розумна, заможна»



Жанр: комедія, мелодрама
Країна: Велика Британія



Кінокомпанія: Working Title Films, Blueprint Pictures, Perfect World Pictures
Режисер: Отем де Уайлд
Актори: Аня Тейлор-Джой, Джонні Флінн, Міа Гот, Джош О’Коннор, Білл Найї, Каллум Тернер, Міранда Харт, Руперт Грейвз, Джемма Вілан

Сюжет:
Вродлива, розумна і багата Емма Вудхаус є зайнятою королевою свого невеликого суспільства в сонному маленькому містечку. У цій блискучій сатирі на соціальні класи і труднощі дорослішання Емма повинна відправитися у подорож крізь романтичні помилки, щоб знайти кохання, яке було перед нею весь цей час.


Тривалість: 02:04:20
Якість: Blu-Ray Remux 1080p

Відео:
кодек:
розмір кадру: 1920 x 1080
бітрейт: 31500 кб/с

Аудіо # 1:
мова: українська
переклад: професійний дубльований
кодек: 2.0 (стерео)
бітрейт: 192 кб/с

Аудіо # 2:
мова: англійська
переклад: оригінал
кодек: 5.1
бітрейт: 448 кб/с

Аудіо # 2:
мова: англійська
переклад: оригінал
кодек: -HD MA 5.1
бітрейт: 3395 кб/с

Субтитри # 1: (Forced)
мова: українська
тип: програмні (м'які)
формат: *.srt

Субтитри # 2 - 3: (Full, SDH)
мова: англійська
тип: програмні (м'які)
формат: *.srt
Info
Код:

General
Complete name                            : Emma. (2020) Remux 1080p [Ukr_Eng] [Video_Hurtom].
Format                                   :
Format version                           : Version 4
File size                                : 30.9 GiB
Duration                                 : 2 h 4 min
Overall bit rate mode                    : Variable
Overall bit rate                         : 35.5 Mb/s
Movie name                               : Емма / Emma. (2020)
Encoded date                             : UTC 2020-06-07 12:07:12
Writing application                      : v30.1.0 ('Forever And More') 64-bit
Writing library                          : libebml v1.3.6 + v1.4.9
Cover                                    : Yes
Attachments                              : cover.jpg

Video
ID                                       : 1
Format                                   : AVC
Format/Info                              : Advanced Video Codec
Format profile                           : [email protected]
Format settings                          : CABAC / 2 Ref Frames
Format settings, CABAC                   : Yes
Format settings, RefFrames               : 2 frames
Format settings, GOP                     : M=1, N=10
Codec ID                                 : V_MPEG4/ISO/AVC
Duration                                 : 2 h 4 min
Bit rate mode                            : Variable
Bit rate                                 : 31.5 Mb/s
Width                                    : 1 920 pixels
Height                                   : 1 080 pixels
Display aspect ratio                     : 16:9
Frame rate mode                          : Constant
Frame rate                               : 23.976 (24000/1001) FPS
Color space                              : YUV
Chroma subsampling                       : 4:2:0
Bit depth                                : 8 bits
Scan type                                : Progressive
Bits/(Pixel*Frame)                       : 0.634
Stream size                              : 27.4 GiB (89%)
Language                                 : English
Default                                  : Yes
Forced                                   : No

Audio #1
ID                                       : 2
Format                                   : AC-3
Format/Info                              : Audio Coding 3
Commercial name                          : Dolby Digital
Codec ID                                 : A_AC3
Duration                                 : 2 h 4 min
Bit rate mode                            : Constant
Bit rate                                 : 192 kb/s
Channel(s)                               : 2 channels
Channel layout                           : L R
Sampling rate                            : 48.0 kHz
Frame rate                               : 31.250 FPS (1536 SPF)
Bit depth                                : 16 bits
Compression mode                         : Lossy
Stream size                              : 171 MiB (1%)
Title                                    : 2.0 | 192
Language                                 : Ukrainian
Service kind                             : Complete Main
Default                                  : Yes
Forced                                   : No

Audio #2
ID                                       : 3
Format                                   : AC-3
Format/Info                              : Audio Coding 3
Commercial name                          : Dolby Digital
Codec ID                                 : A_AC3
Duration                                 : 2 h 4 min
Bit rate mode                            : Constant
Bit rate                                 : 448 kb/s
Channel(s)                               : 6 channels
Channel layout                           : L R C LFE Ls Rs
Sampling rate                            : 48.0 kHz
Frame rate                               : 31.250 FPS (1536 SPF)
Bit depth                                : 16 bits
Compression mode                         : Lossy
Stream size                              : 398 MiB (1%)
Title                                    : 5.1 | 448
Language                                 : English
Service kind                             : Complete Main
Default                                  : No
Forced                                   : No

Audio #3
ID                                       : 4
Format                                   : XLL
Format/Info                              : Digital Theater Systems
Commercial name                          : -HD Master Audio
Codec ID                                 : A_DTS
Duration                                 : 2 h 4 min
Bit rate mode                            : Variable
Bit rate                                 : 3 395 kb/s
Channel(s)                               : 6 channels
Channel layout                           : C L R Ls Rs LFE
Sampling rate                            : 48.0 kHz
Frame rate                               : 93.750 FPS (512 SPF)
Bit depth                                : 24 bits
Compression mode                         : Lossless
Stream size                              : 2.95 GiB (10%)
Title                                    : -HD MA 5.1 | 3395
Language                                 : English
Default                                  : No
Forced                                   : No

Text #1
ID                                       : 5
Format                                   : UTF-8
Codec ID                                 : S_TEXT/UTF8
Codec ID/Info                            : UTF-8 Plain Text
Duration                                 : 46 min 48 s
Bit rate                                 : 0 b/s
Count of elements                        : 6
Stream size                              : 213 Bytes (0%)
Title                                    : Forced
Language                                 : Ukrainian
Default                                  : Yes
Forced                                   : No

Text #2
ID                                       : 6
Format                                   : UTF-8
Codec ID                                 : S_TEXT/UTF8
Codec ID/Info                            : UTF-8 Plain Text
Duration                                 : 1 h 59 min
Bit rate                                 : 61 b/s
Count of elements                        : 1715
Stream size                              : 53.7 KiB (0%)
Title                                    : Full
Language                                 : English
Default                                  : No
Forced                                   : No

Text #3
ID                                       : 7
Format                                   : UTF-8
Codec ID                                 : S_TEXT/UTF8
Codec ID/Info                            : UTF-8 Plain Text
Duration                                 : 2 h 3 min
Bit rate                                 : 67 b/s
Count of elements                        : 2067
Stream size                              : 61.3 KiB (0%)
Title                                    : SDH
Language                                 : English
Default                                  : No
Forced                                   : No

Menu
00:00:00.000                             : en:Chapter 01
00:07:32.827                             : en:Chapter 02
00:11:26.311                             : en:Chapter 03
00:16:21.564                             : en:Chapter 04
00:21:52.603                             : en:Chapter 05
00:25:30.988                             : en:Chapter 06
00:31:46.613                             : en:Chapter 07
00:35:59.657                             : en:Chapter 08
00:44:14.277                             : en:Chapter 09
00:47:31.724                             : en:Chapter 10
00:56:16.790                             : en:Chapter 11
01:00:16.321                             : en:Chapter 12
01:05:16.329                             : en:Chapter 13
01:09:28.289                             : en:Chapter 14
01:18:26.535                             : en:Chapter 15
01:25:05.058                             : en:Chapter 16
01:35:06.659                             : en:Chapter 17
01:43:40.965                             : en:Chapter 18
01:55:16.576                             : en:Chapter 19
01:57:23.036                             : en:Chapter 20
Скріншоти




Джерело:
Особиста оцінка: 0 - не дивився


Золотий реліз (завантажене не впливає на рейтинг)
 Трекер:    Зареєстрований   

Завантажити / скачати фільм українською



відео для новачків



 Зареєстрований:   2020-06-07 16:40
 Розмір:   30.87 GB 
 Оцінка фільму:   10/10 (Голосів: 7)
   
Інші релізи
   Емма / Emma. (2020) antik_2008  33 / 0   1.47 GB   2020-06-07 18:03 
   Емма / Emma. (2020) 1080p Ukr/Eng | Sub Eng staf777  20 / 0   12.55 GB   2020-06-07 17:37 
   Емма / Emma. (2020) 720p Ukr/Eng | Sub Eng antik_2008  23 / 0   4.07 GB   2020-06-07 14:42 
   Емма / Emma. (2020) AVC Ukr/Eng | Sub Eng 11FrYkT  25 / 0   2.18 GB   2020-06-07 10:11 
Ваш часовий пояс: GMT + 2 Години

Нова тема   Відповісти