Червоні черевички та семеро гномів / Red Shoes and the Seven Dwarfs (2019) AVC Ukr/Eng

Нові коментарі

Нова тема   Відповісти
Автор Повідомлення
Anonymous 







2020-06-07 13:58  
Червоні черевички та семеро гномів / Red Shoes and the Seven Dwarfs (2019) AVC Ukr/Eng



Жанр: анімація, екшн, пригодницький
Країна: Південна Корея



Кінокомпанія: Locus Creative Studios, Next Entertainment World
Режисер: Сон Го Гонґ
Ролі озвучують: Хлоя Морец, Патрік Варбертон, Джина Гершон, Сем Клафлін.

Сюжет:
Сюжет пародійного мультфільму пов’язує дві класичні казки Червона шапочка та Білосніжка й сім гномів. Одного разу на егоїстичних і самозакоханих принців було накладено закляття, яке перетворило їх у зелених гномів. Щоби зняти закляття, маленьким героям необхідно знайти пару червоних черевичків. З їхньою допомогою принци знову зможуть повернутися до нормального життя.


Тривалість: 01:32:01
Якість: [German]
Відео:
кодек:
розмір кадру: 1024 х 552
бітрейт: 2492 кб/с

Аудіо # 1:
мова: українська
переклад: професійний дубльований | AAA-Sound
кодек: 2.0
бітрейт: 192 кб/с

Аудіо # 2:
мова: англійська
переклад: оригінал
кодек: 5.1
бітрейт: 448 кб/с
Скріншоти













MI
Format :
Format version : Version 4
File size : 2.01 GiB
Duration : 1 h 32 min
Overall bit rate : 3 135 kb/s
Encoded date : UTC 2020-06-07 12:01:06
Writing application : v44.0.0 ('Domino') 64-bit
Writing library : libebml v1.3.10 + v1.5.2
Cover : Yes
Attachments : cover.jpg

Video
ID : 1
Format : AVC
Format/Info : Advanced Video Codec
Format profile : [email protected]
Format settings : CABAC / 9 Ref Frames
Format settings, CABAC : Yes
Format settings, Reference : 9 frames
Codec ID : V_MPEG4/ISO/AVC
Duration : 1 h 32 min
Bit rate : 2 492 kb/s
Width : 1 024 pixels
Height : 552 pixels
Display aspect ratio : 1.85:1
Frame rate mode : Constant
Frame rate : 23.976 FPS
Color space : YUV
Chroma subsampling : 4:2:0
Bit depth : 8 bits
Scan type : Progressive
Bits/(Pixel*Frame) : 0.184
Stream size : 1.60 GiB (79%)
Writing library : core 152 r2851bm ba24899
Encoding settings : cabac=1 / ref=9 / deblock=1:-3:-3 / analyse=0x3:0x113 / me=umh / subme=11 / psy=1 / psy_rd=1.00:0.15 / mixed_ref=1 / me_range=32 / chroma_me=1 / trellis=2 / 8x8dct=1 / cqm=0 / deadzone=21,11 / fast_pskip=0 / chroma_qp_offset=-3 / threads=8 / lookahead_threads=3 / sliced_threads=0 / nr=0 / decimate=0 / interlaced=0 / bluray_compat=0 / constrained_intra=0 / bframes=10 / b_pyramid=2 / b_adapt=2 / b_bias=0 / direct=3 / weightb=1 / open_gop=0 / weightp=2 / keyint=240 / keyint_min=23 / scenecut=40 / intra_refresh=0 / rc=2pass / mbtree=0 / bitrate=2492 / ratetol=1.0 / qcomp=0.60 / qpmin=0 / qpmax=69 / qpstep=4 / cplxblur=20.0 / qblur=0.5 / ip_ratio=1.40 / pb_ratio=1.30 / aq=1:1.00
Language : English
Default : Yes
Forced : No

Audio #1
ID : 2
Format : AC-3
Format/Info : Audio Coding 3
Commercial name : Dolby Digital
Codec ID : A_AC3
Duration : 1 h 32 min
Bit rate mode : Constant
Bit rate : 192 kb/s
Channel(s) : 2 channels
Channel layout : L R
Sampling rate : 48.0 kHz
Frame rate : 31.250 FPS (1536 SPF)
Compression mode : Lossy
Stream size : 126 MiB (6%)
Title : DUB
Language : Ukrainian
Service kind : Complete Main
Default : Yes
Forced : No

Audio #2
ID : 3
Format : AC-3
Format/Info : Audio Coding 3
Commercial name : Dolby Digital
Codec ID : A_AC3
Duration : 1 h 32 min
Bit rate mode : Constant
Bit rate : 448 kb/s
Channel(s) : 6 channels
Channel layout : L R C LFE Ls Rs
Sampling rate : 48.0 kHz
Frame rate : 31.250 FPS (1536 SPF)
Compression mode : Lossy
Stream size : 295 MiB (14%)
Language : English
Service kind : Complete Main
Default : No
Forced : No

Menu
00:00:00.000 : en:Глава 01
00:07:26.488 : en:Глава 02
00:14:31.662 : en:Глава 03
00:20:54.462 : en:Глава 04
00:27:22.099 : en:Глава 05
00:33:33.720 : en:Глава 06
00:43:23.976 : en:Глава 07
00:50:41.956 : en:Глава 08
00:56:27.509 : en:Глава 09
01:03:31.266 : en:Глава 10
01:12:52.702 : en:Глава 11
01:24:00.619 : en:Глава 12
Джерело:
Особиста оцінка: 0 - не дивився


 Трекер:    Зареєстрований   

Завантажити / скачати мультфільм українською



відео для новачків



 Зареєстрований:   2020-06-07 14:07
 Розмір:   2.01 GB 
 Оцінка мультфільму:   8.6/10 (Голосів: 17)
   
Ваш часовий пояс: GMT + 2 Години

Нова тема   Відповісти