Емма / Emma. (2020) 720p Ukr/Eng | Sub Eng

Нові коментарі

Нова тема   Відповісти
Автор Повідомлення
Anonymous 







2020-06-07 14:42  
Емма / Emma. (2020) 720p Ukr/Eng | Sub Eng


«Красива, розумна, заможна»



Жанр: комедія, мелодрама
Країна: Велика Британія



Кінокомпанія: Working Title Films, Blueprint Pictures, Perfect World Pictures
Режисер: Отем де Вайлд
Актори: Аня Тейлор-Джой, Джонні Флінн, Міа Гот, Джош О’Коннор, Білл Найї, Каллум Тернер, Міранда Харт, Руперт Грейвз, Джемма Вілан

Сюжет:
Вродлива, розумна і багата Емма Вудхаус є зайнятою королевою свого невеликого суспільства в сонному маленькому містечку. У цій блискучій сатирі на соціальні класи і труднощі дорослішання Емма повинна відправитися у подорож крізь романтичні помилки, щоб знайти кохання, яке було перед нею весь цей час.


Тривалість: 02:04:20
Якість: 720p

Відео:
кодек:
розмір кадру: 1280 x 720
бітрейт: 3848 кб/с

Аудіо # 1:
мова: українська
переклад: професійний дубльований
кодек: 2.0 (стерео)
бітрейт: 192 кб/с

Аудіо # 2:
мова: англійська
переклад: оригінал
кодек: 5.1
бітрейт: 640 кб/с

Субтитри # 1: (Forced)
мова: українська
тип: програмні (м'які)
формат: *.srt

Субтитри # 2 - 3: (Full, SDH)
мова: англійська
тип: програмні (м'які)
формат: *.srt
Info
Код:

General
Complete name                            : Emma. (2020) 720p [Ukr_Eng] [Video_Hurtom].
Format                                   :
Format version                           : Version 4
File size                                : 4.07 GiB
Duration                                 : 2 h 4 min
Overall bit rate                         : 4 682 kb/s
Movie name                               : Емма / Emma. (2020)
Encoded date                             : UTC 2020-06-07 11:31:35
Writing application                      : v30.1.0 ('Forever And More') 64-bit
Writing library                          : libebml v1.3.6 + v1.4.9
Cover                                    : Yes
Attachments                              : cover.jpg

Video
ID                                       : 1
Format                                   : AVC
Format/Info                              : Advanced Video Codec
Format profile                           : [email protected]
Format settings                          : CABAC / 9 Ref Frames
Format settings, CABAC                   : Yes
Format settings, RefFrames               : 9 frames
Codec ID                                 : V_MPEG4/ISO/AVC
Duration                                 : 2 h 4 min
Bit rate                                 : 3 848 kb/s
Width                                    : 1 280 pixels
Height                                   : 720 pixels
Display aspect ratio                     : 16:9
Frame rate mode                          : Constant
Frame rate                               : 23.976 (24000/1001) FPS
Color space                              : YUV
Chroma subsampling                       : 4:2:0
Bit depth                                : 8 bits
Scan type                                : Progressive
Bits/(Pixel*Frame)                       : 0.174
Stream size                              : 3.34 GiB (82%)
Title                                    : MTeam
Writing library                          : core 157 r2938 2b00a84 [email protected] Mod
Encoding settings                        : cabac=1 / ref=9 / deblock=1:-3:-3 / analyse=0x3:0x133 / me=umh / subme=10 / psy=1 / psy_rd=1.05:0.00 / mixed_ref=1 / me_range=32 / chroma_me=1 / trellis=2 / 8x8dct=1 / cqm=0 / deadzone=21,11 / fast_pskip=0 / chroma_qp_offset=-2 / threads=12 / lookahead_threads=2 / sliced_threads=0 / nr=0 / decimate=0 / interlaced=0 / bluray_compat=0 / constrained_intra=0 / bframes=8 / b_pyramid=2 / b_adapt=2 / b_bias=0 / direct=3 / weightb=1 / open_gop=0 / weightp=2 / keyint=250 / keyint_min=24 / scenecut=40 / intra_refresh=0 / rc_lookahead=250 / rc=crf / mbtree=0 / crf=16.8 / qcomp=0.60 / qpmin=0 / qpmax=69 / qpstep=4 / vbv_maxrate=62500 / vbv_bufsize=78125 / crf_max=0.0 / nal_hrd=none / filler=0 / ip_ratio=1.30 / pb_ratio=1.20 / aq=3:0.80
Language                                 : English
Default                                  : Yes
Forced                                   : No
Color range                              : Limited
Color primaries                          : BT.709
Matrix coefficients                      : BT.709

Audio #1
ID                                       : 2
Format                                   : AC-3
Format/Info                              : Audio Coding 3
Commercial name                          : Dolby Digital
Codec ID                                 : A_AC3
Duration                                 : 2 h 4 min
Bit rate mode                            : Constant
Bit rate                                 : 192 kb/s
Channel(s)                               : 2 channels
Channel layout                           : L R
Sampling rate                            : 48.0 kHz
Frame rate                               : 31.250 FPS (1536 SPF)
Bit depth                                : 16 bits
Compression mode                         : Lossy
Stream size                              : 171 MiB (4%)
Title                                    : 2.0 | 192
Language                                 : Ukrainian
Service kind                             : Complete Main
Default                                  : Yes
Forced                                   : No

Audio #2
ID                                       : 3
Format                                   : AC-3
Format/Info                              : Audio Coding 3
Commercial name                          : Dolby Digital
Codec ID                                 : A_AC3
Duration                                 : 2 h 4 min
Bit rate mode                            : Constant
Bit rate                                 : 640 kb/s
Channel(s)                               : 6 channels
Channel layout                           : L R C LFE Ls Rs
Sampling rate                            : 48.0 kHz
Frame rate                               : 31.250 FPS (1536 SPF)
Bit depth                                : 16 bits
Compression mode                         : Lossy
Stream size                              : 569 MiB (14%)
Title                                    : 5.1 | 640
Language                                 : English
Service kind                             : Complete Main
Default                                  : No
Forced                                   : No

Text #1
ID                                       : 4
Format                                   : UTF-8
Codec ID                                 : S_TEXT/UTF8
Codec ID/Info                            : UTF-8 Plain Text
Duration                                 : 46 min 48 s
Bit rate                                 : 0 b/s
Count of elements                        : 6
Stream size                              : 213 Bytes (0%)
Title                                    : Forced
Language                                 : Ukrainian
Default                                  : Yes
Forced                                   : No

Text #2
ID                                       : 5
Format                                   : UTF-8
Codec ID                                 : S_TEXT/UTF8
Codec ID/Info                            : UTF-8 Plain Text
Duration                                 : 1 h 59 min
Bit rate                                 : 61 b/s
Count of elements                        : 1715
Stream size                              : 53.7 KiB (0%)
Title                                    : Full
Language                                 : English
Default                                  : No
Forced                                   : No

Text #3
ID                                       : 6
Format                                   : UTF-8
Codec ID                                 : S_TEXT/UTF8
Codec ID/Info                            : UTF-8 Plain Text
Duration                                 : 2 h 3 min
Bit rate                                 : 67 b/s
Count of elements                        : 2067
Stream size                              : 61.3 KiB (0%)
Title                                    : SDH
Language                                 : English
Default                                  : No
Forced                                   : No

Menu
00:00:00.000                             : en:Chapter 01
00:07:32.827                             : en:Chapter 02
00:11:26.311                             : en:Chapter 03
00:16:21.564                             : en:Chapter 04
00:21:52.603                             : en:Chapter 05
00:25:30.988                             : en:Chapter 06
00:31:46.613                             : en:Chapter 07
00:35:59.657                             : en:Chapter 08
00:44:14.277                             : en:Chapter 09
00:47:31.724                             : en:Chapter 10
00:56:16.790                             : en:Chapter 11
01:00:16.321                             : en:Chapter 12
01:05:16.329                             : en:Chapter 13
01:09:28.289                             : en:Chapter 14
01:18:26.535                             : en:Chapter 15
01:25:05.058                             : en:Chapter 16
01:35:06.659                             : en:Chapter 17
01:43:40.965                             : en:Chapter 18
01:55:16.576                             : en:Chapter 19
01:57:23.036                             : en:Chapter 20
Скріншоти




Джерело:
Особиста оцінка: 0 - не дивився


 Трекер:    Зареєстрований   

Завантажити / скачати фільм українською



відео для новачків



 Зареєстрований:   2020-06-07 14:42
 Розмір:   4.07 GB 
 Оцінка фільму:   9.2/10 (Голосів: 13)
   
Інші релізи
   Емма / Emma. (2020) antik_2008  33 / 0   1.47 GB   2020-06-07 18:03 
   Емма / Emma. (2020) 1080p Ukr/Eng | Sub Eng staf777  20 / 0   12.55 GB   2020-06-07 17:37 
   Емма / Emma. (2020) Remux 1080p Ukr/Eng | Sub Eng antik_2008  0 / 0   30.87 GB   2020-06-07 16:40 
   Емма / Emma. (2020) AVC Ukr/Eng | Sub Eng 11FrYkT  25 / 0   2.18 GB   2020-06-07 10:11 
Ваш часовий пояс: GMT + 2 Години

Нова тема   Відповісти