Повернення живих мерців / The Return of the Living Dead (1985) [Remastered] 1080p H.265 2xUkr/Eng | Sub Eng

Нові коментарі

Нова тема   Відповісти
Останній раз роздавалося siroga96 (2020-09-15)
Автор Повідомлення
Anonymous 







2020-06-07 10:49  
Повернення живих мерців / The Return of the Living Dead (1985) [Remastered] 1080p H.265 2xUkr/Eng | Sub Eng

Повернення живих мерців / The Return of the Living Dead (1985) [Remastered] 1080p H.265 2xUkr/Eng | Sub Eng


Жанр: комедія, жахи, фантастика
Країна: США
Кінокомпанія: Hemdale, Fox Films Ltd., Cinema '84/Greenberg Brothers Partnership
Режисер: Ден О’Беннон / Dan O'Bannon
Актори: Клу Ґулаґер / Clu Gulager, Джеймс Карен / James Karen, Дон Калфа / Don Calfa, Том Мет'юс / Thom Mathews, Беверлі Рендолф / Beverly Randolph, Джон Філбін / John Philbin, Джуел Шепард / Jewel Shepard, Міґель А. Нунєс мол. / Miguel A. Núñez Jr., Брайан Пек / Brian Peck, Лінні Куїґлі / Linnea Quigley та інші

Сюжет:
На одному загумінковому медицинському складі, так воно вже сталося, зберігалися контейнери із зомбі, що помилково потрапили туди багато років назад. Зрозуміле діло, одного прекрасного, а чи, радше, жахливого дня герметичність контейнерів було порушено, мерці ожили й почали жваво полювати за своїм фірмовим делікатесом – людськими мізками...

Тривалість: 01:30:30
Якість: [Remastered]

Відео:
кодек: H.265 (HEVC)
розмір кадру: 1920 x 1040
бітрейт: 11 193 кб/с
бітова глибина: 10 біт

Увага! Перед завантаженням переконайтесь, що ваш пристрій відтворення (та/або ПЗ) підтримує H.265 (HEVC)

Аудіо # 1:
мова: українська
переклад: двоголосий закадровий
кодек: AC-3 2.0
бітрейт: 192 кб/с

Аудіо # 2:
мова: українська
переклад: багатоголосий закадровий
кодек: AC-3 2.0
бітрейт: 192 кб/с
примітка: є неозвучені моменти

Аудіо # 3:
мова: англійська
переклад: оригінал
кодек: 5.1
бітрейт: 1510 кб/с

Субтитри # 1-2: (Full v1, Full v2)
мова: англійська
тип: програмні (м'які)
формат: *.srt


Info
Код:
General
Unique ID                                : 138319398973938274423263840851442255187 (0x680F58E48C1CE3B5BC8392F052EFC553)
Complete name                            : The Return of the Living Dead (1985) [Remastered] 1080p H.265 [2xUKR_ENG] [Hurtom].
Format                                   :
Format version                           : Version 4
File size                                : 8.28 GiB
Duration                                 : 1 h 30 min
Overall bit rate                         : 13.1 Mb/s
Movie name                               : Повернення живих мерців / The Return of the Living Dead (1985) [Remastered]
Encoded date                             : UTC 2020-06-07 07:28:07
Writing application                      : v20.0.0 ('I Am The Sun') 64-bit
Writing library                          : libebml v1.3.5 + v1.4.8
Cover                                    : Yes
Attachments                              : Cover.jpg

Video
ID                                       : 1
Format                                   : HEVC
Format/Info                              : High Efficiency Video Coding
Format profile                           : Main [email protected]@High
Codec ID                                 : V_MPEGH/ISO/HEVC
Duration                                 : 1 h 30 min
Bit rate                                 : 11.2 Mb/s
Width                                    : 1 920 pixels
Height                                   : 1 040 pixels
Display aspect ratio                     : 1.85:1
Frame rate mode                          : Constant
Frame rate                               : 23.976 (24000/1001) FPS
Color space                              : YUV
Chroma subsampling                       : 4:2:0
Bit depth                                : 10 bits
Bits/(Pixel*Frame)                       : 0.234
Stream size                              : 7.08 GiB (85%)
Title                                    : Повернення живих мерців / The Return of the Living Dead (1985) [Remastered]
Writing library                          : x265 3.3+2-gbe2d82093:[Windows][GCC 10.0.1][64 bit] 10bit
Encoding settings                        : cpuid=1111039 / frame-threads=4 / numa-pools=16 / wpp / no-pmode / no-pme / no-psnr / no-ssim / log-level=2 / input-csp=1 / input-res=1920x1040 / interlace=0 / total-frames=130191 / level-idc=41 / high-tier=1 / uhd-bd=0 / ref=5 / no-allow-non-conformance / no-repeat-headers / annexb / no-aud / no-hrd / info / hash=0 / no-temporal-layers / open-gop / min-keyint=24 / keyint=240 / gop-lookahead=0 / bframes=12 / b-adapt=2 / b-pyramid / bframe-bias=0 / rc-lookahead=60 / lookahead-slices=1 / scenecut=40 / hist-scenecut=0 / radl=0 / no-splice / no-intra-refresh / ctu=32 / min-cu-size=8 / rect / amp / max-tu-size=32 / tu-inter-depth=4 / tu-intra-depth=4 / limit-tu=1 / rdoq-level=2 / dynamic-rd=0.00 / no-ssim-rd / signhide / no-tskip / nr-intra=0 / nr-inter=0 / no-constrained-intra / no-strong-intra-smoothing / max-merge=5 / limit-refs=3 / limit-modes / me=3 / subme=7 / merange=64 / temporal-mvp / no-frame-dup / hme / Level / merange / L0,L1,L2=16,32,64 / weightp / weightb / no-analyze-src-pics / deblock=-2:-2 / no-sao / no-sao-non-deblock / rd=6 / selective-sao=0 / no-early-skip / rskip / rskip-edge-threshold=0.050000 / no-fast-intra / no-tskip-fast / no-cu-lossless / b-intra / no-splitrd-skip / rdpenalty=0 / psy-rd=1.50 / psy-rdoq=0.90 / no-rd-refine / no-lossless / cbqpoffs=0 / crqpoffs=0 / rc=crf / crf=20.0 / qcomp=0.70 / qpstep=4 / stats-write=0 / stats-read=0 / vbv-maxrate=50000 / vbv-bufsize=50000 / vbv-init=0.9 / crf-max=0.0 / crf-min=0.0 / ipratio=1.40 / pbratio=1.30 / aq-mode=1 / aq-strength=1.00 / no-cutree / zone-count=0 / no-strict-cbr / qg-size=32 / no-rc-grain / qpmax=69 / qpmin=0 / no-const-vbv / sar=1 / overscan=0 / videoformat=5 / range=0 / colorprim=1 / transfer=1 / colormatrix=1 / chromaloc=0 / display-window=0 / cll=0,0 / min-luma=0 / max-luma=1023 / log2-max-poc-lsb=8 / vui-timing-info / vui-hrd-info / slices=1 / no-opt-qp-pps / no-opt-ref-list-length-pps / no-multi-pass-opt-rps / scenecut-bias=0.05 / hist-threshold=0.01 / no-opt-cu-delta-qp / no-aq-motion / no-hdr10 / no-hdr10-opt / no-dhdr10-opt / no-idr-recovery-sei / analysis-reuse-level=0 / analysis-save-reuse-level=0 / analysis-load-reuse-level=0 / scale-factor=0 / refine-intra=0 / refine-inter=0 / refine-mv=1 / refine-ctu-distortion=0 / no-limit-sao / ctu-info=0 / no-lowpass-dct / refine-analysis-type=0 / copy-pic=1 / max-ausize-factor=1.0 / no-dynamic-refine / no-single-sei / no-hevc-aq / no-svt / no-field / qp-adaptation-range=1.00 / no-scenecut-aware-qpconformance-window-offsets / right=0 / bottom=0
Language                                 : English
Default                                  : Yes
Forced                                   : No
Color range                              : Limited
Color primaries                          : BT.709
Transfer characteristics                 : BT.709
Matrix coefficients                      : BT.709

Audio #1
ID                                       : 2
Format                                   : AC-3
Format/Info                              : Audio Coding 3
Commercial name                          : Dolby Digital
Codec ID                                 : A_AC3
Duration                                 : 1 h 30 min
Bit rate mode                            : Constant
Bit rate                                 : 192 kb/s
Channel(s)                               : 2 channels
Channel layout                           : L R
Sampling rate                            : 48.0 kHz
Frame rate                               : 31.250 FPS (1536 SPF)
Compression mode                         : Lossy
Stream size                              : 125 MiB (1%)
Title                                    : / 2.0 Ch / 192 kbps / ДЗ / 1+1
Language                                 : Ukrainian
Service kind                             : Complete Main
Default                                  : Yes
Forced                                   : Yes

Audio #2
ID                                       : 3
Format                                   : AC-3
Format/Info                              : Audio Coding 3
Commercial name                          : Dolby Digital
Codec ID                                 : A_AC3
Duration                                 : 1 h 30 min
Bit rate mode                            : Constant
Bit rate                                 : 192 kb/s
Channel(s)                               : 2 channels
Channel layout                           : L R
Sampling rate                            : 48.0 kHz
Frame rate                               : 31.250 FPS (1536 SPF)
Compression mode                         : Lossy
Stream size                              : 125 MiB (1%)
Title                                    : / 2.0 Ch / 192 kbps / БЗ / AMC
Language                                 : Ukrainian
Service kind                             : Complete Main
Default                                  : No
Forced                                   : No

Audio #3
ID                                       : 4
Format                                   :
Format/Info                              : Digital Theater Systems
Codec ID                                 : A_DTS
Duration                                 : 1 h 30 min
Bit rate mode                            : Constant
Bit rate                                 : 1 509 kb/s
Channel(s)                               : 6 channels
Channel layout                           : C L R Ls Rs LFE
Sampling rate                            : 48.0 kHz
Frame rate                               : 93.750 FPS (512 SPF)
Bit depth                                : 24 bits
Compression mode                         : Lossy
Stream size                              : 977 MiB (12%)
Title                                    : / 5.1 Ch / 1509 kbps / Original
Language                                 : English
Default                                  : No
Forced                                   : No

Text #1
ID                                       : 5
Format                                   : UTF-8
Codec ID                                 : S_TEXT/UTF8
Codec ID/Info                            : UTF-8 Plain Text
Duration                                 : 1 h 30 min
Bit rate                                 : 65 b/s
Count of elements                        : 1389
Stream size                              : 43.2 KiB (0%)
Title                                    : Full v1
Language                                 : English
Default                                  : No
Forced                                   : No

Text #2
ID                                       : 6
Format                                   : UTF-8
Codec ID                                 : S_TEXT/UTF8
Codec ID/Info                            : UTF-8 Plain Text
Duration                                 : 1 h 30 min
Bit rate                                 : 68 b/s
Count of elements                        : 1568
Stream size                              : 45.5 KiB (0%)
Title                                    : Full v2
Language                                 : English
Default                                  : No
Forced                                   : No

Menu
00:00:00.000                             : en:Perfect Teeth
00:04:05.662                             : en:Army Secret
00:07:38.040                             : en:Vapor/Main Titles
00:10:38.762                             : en:On Call
00:15:07.948                             : en:A Little Problem
00:19:10.858                             : en:Dark Fantasy
00:20:44.451                             : en:Let Him Out
00:26:50.525                             : en:A Big Favor
00:35:49.146                             : en:Dust to Dust
00:38:31.350                             : en:Getting Soaked
00:44:51.897                             : en:Hungry
00:46:57.940                             : en:Techinically Speaking
00:52:28.103                             : en:They're Out of There
00:55:18.982                             : en:Under Siege
01:00:11.691                             : en:Rigor Mortis
01:02:45.762                             : en:Zombie Prisoner
01:08:10.252                             : en:Send More Cops
01:09:59.236                             : en:Transformation
01:13:57.850                             : en:Escape Attempt
01:16:34.089                             : en:Surrounded
01:20:05.175                             : en:Call for Help
01:21:49.613                             : en:In Case of Emergency
01:24:45.121                             : en:Contingency Plan
01:26:00.029                             : en:Spectacular Results/End Titles
Світлини




Джерело: &
Особиста оцінка: 0 - не дивився


Срібний реліз (на рейтинг впливає 50% завантаженого)
 Трекер:    Зареєстрований   

Завантажити / скачати фільм українською



відео для новачків



 Зареєстрований:   2020-06-07 10:49
 Розмір:   8.28 GB 
 Оцінка фільму:   9.6/10 (Голосів: 5)
   
Ваш часовий пояс: GMT + 2 Години

Нова тема   Відповісти