Снайпер 5: Спадок / Sniper: Legacy (2014) 1080p Eng | sub Ukr/Eng

Нові коментарі

Нова тема   Відповісти
Автор Повідомлення
Anonymous 







2020-06-06 00:13  
Снайпер: Спадок / Sniper: Legacy (2014) 1080p Eng | sub Ukr/Eng

Снайпер 5: Спадок / Sniper: Legacy (2014) 1080p Eng | sub Ukr/Eng


Жанр: бойовик, трилер, військовий
Країна: США, Болгарія



Кінокомпанія: Destination Films, UFO International Productions
Режисер: Дон Майкл Пол / Don Michael Paul
Актори: Том Беренджер / Tom Berenger, Чед Майкл Коллінз / Chad Michael Collins, Дуг Аллен / Doug Allen, Домінік Мафам / Doug Allen

Сюжет:
Брендону повідомляють, що снайпер-дезертир вбив його батька. Зібравши невеличкий загін, він вирішує вистежити вбивцю. У процесі пошуків він дізнається, що його батько не помер, після чого Брендон починає розуміти, що старші офіцери використовували його в якості приманки ...

П'ятий фільм цієї серії фільмів*


Тривалість: 01:37:59
Якість: 1080p [Amazon]
Відео:
кодек:
розмір кадру: 1920х1080
бітрейт: 8186 кб/с

Аудіо:
мова: англійська
переклад: оригінал
кодек: 5.1
бітрейт: 448 кб/с

Субтитри # 1:
мова: українська
тип: програмні (м'які)
формат: *.srt
переклад: офіційний, Олена Цехмейструк

Субтитри # 2-3:
мова: англійська (повні, SDH)
тип: програмні (м'які)
формат: *.srt
Info
Код:
Complete name               : Sniper 5. Legacy (2014) [Eng sub.Ukr,Eng] 1080p AMZN [Hurtom].
Format                      :
Format version              : Version 4
File size                   : 5.91 GiB
Duration                    : 1 h 37 min
Overall bit rate mode       : Variable
Overall bit rate            : 8 636 kb/s
Movie name                  : Снайпер 5: Спадок / Sniper: Legacy (2014) [Eng sub.Ukr,Eng] 1080p [Hurtom]
Encoded date                : UTC 2020-06-06 16:38:24
Writing application         : v47.0.0 ('Black Flag') 64-bit
Writing library             : libebml v1.3.10 + v1.5.2
Cover                       : Yes
Attachments                 : cover.jpg

Video
ID                          : 1
Format                      : AVC
Format/Info                 : Advanced Video Codec
Format profile              : [email protected]
Format settings             : CABAC / 4 Ref Frames
Format settings, CABAC      : Yes
Format settings, Reference  : 4 frames
Codec ID                    : V_MPEG4/ISO/AVC
Duration                    : 1 h 37 min
Bit rate mode               : Variable
Bit rate                    : 8 186 kb/s
Maximum bit rate            : 15.0 Mb/s
Width                       : 1 920 pixels
Height                      : 1 080 pixels
Display aspect ratio        : 16:9
Frame rate mode             : Constant
Frame rate                  : 23.976 (24000/1001) FPS
Color space                 : YUV
Chroma subsampling          : 4:2:0
Bit depth                   : 8 bits
Scan type                   : Progressive
Bits/(Pixel*Frame)          : 0.165
Stream size                 : 5.60 GiB (95%)
Title                       : Снайпер 5: Спадок / Sniper: Legacy (2014) 1080p [Amazon, ABM]
Writing library             : core 148 r2623 d5b2374
Encoding settings           : cabac=1 / ref=4 / deblock=1:-1:-1 / analyse=0x3:0x133 / me=umh / subme=9 / psy=1 / psy_rd=1.00:0.15 / mixed_ref=1 / me_range=24 / chroma_me=1 / trellis=2 / 8x8dct=1 / cqm=0 / deadzone=21,11 / fast_pskip=1 / chroma_qp_offset=-3 / threads=34 / lookahead_threads=5 / sliced_threads=0 / nr=150 / decimate=1 / interlaced=0 / bluray_compat=0 / constrained_intra=0 / bframes=8 / b_pyramid=2 / b_adapt=2 / b_bias=0 / direct=3 / weightb=1 / open_gop=0 / weightp=2 / keyint=120 / keyint_min=61 / scenecut=0 / intra_refresh=0 / rc_lookahead=120 / rc=crf / mbtree=1 / crf=18.0 / qcomp=0.60 / qpmin=0 / qpmax=69 / qpstep=4 / vbv_maxrate=15000 / vbv_bufsize=31250 / crf_max=0.0 / nal_hrd=vbr / filler=0 / ip_ratio=1.40 / aq=3:1.00
Language                    : English
Default                     : Yes
Forced                      : No
Color range                 : Limited
Color primaries             : BT.709
Transfer characteristics    : BT.709
Matrix coefficients         : BT.709

Audio
ID                          : 2
Format                      : AC-3
Format/Info                 : Audio Coding 3
Commercial name             : Dolby Digital
Codec ID                    : A_AC3
Duration                    : 1 h 37 min
Bit rate mode               : Constant
Bit rate                    : 448 kb/s
Channel(s)                  : 6 channels
Channel layout              : L R C LFE Ls Rs
Sampling rate               : 48.0 kHz
Frame rate                  : 31.250 FPS (1536 SPF)
Compression mode            : Lossy
Stream size                 : 314 MiB (5%)
Language                    : English
Service kind                : Complete Main
Default                     : Yes
Forced                      : No

Text #1
ID                          : 3
Format                      : UTF-8
Codec ID                    : S_TEXT/UTF8
Codec ID/Info               : UTF-8 Plain Text
Duration                    : 1 h 37 min
Bit rate                    : 59 b/s
Count of elements           : 912
Stream size                 : 42.2 KiB (0%)
Title                       : Ukr Full [Netflix]
Language                    : Ukrainian
Default                     : Yes
Forced                      : Yes

Text #2
ID                          : 4
Format                      : UTF-8
Codec ID                    : S_TEXT/UTF8
Codec ID/Info               : UTF-8 Plain Text
Duration                    : 1 h 33 min
Bit rate                    : 41 b/s
Count of elements           : 949
Stream size                 : 28.6 KiB (0%)
Title                       : Eng Full
Language                    : English
Default                     : No
Forced                      : No

Text #3
ID                          : 5
Format                      : UTF-8
Codec ID                    : S_TEXT/UTF8
Codec ID/Info               : UTF-8 Plain Text
Duration                    : 1 h 34 min
Bit rate                    : 43 b/s
Count of elements           : 1035
Stream size                 : 29.9 KiB (0%)
Title                       : Eng SDH
Language                    : English
Default                     : No
Forced                      : No



Джерело: &
Подяка п.leicheman'у за надані субтитри.

* Інші частини цієї серії фільмів (з посиланнями на пошук релізів):
Снайпер / Sniper (1993)
Снайпер 2 / Sniper 2 (2002)
Снайпер 3 / Sniper 3 (2004)
Снайпер 4: Перезавантаження / Sniper: Reloaded (2011)
Снайпер 6: Воїн-привид / Sniper: Ghost Shooter (2016)
Снайпер 7: Ідеальне вбивство / Sniper: Ultimate Kill (2017)
Снайпер 8: Кінець Асасіна / Sniper. Assassin's End (2020)


 Трекер:    Зареєстрований   

Завантажити / скачати фільм українською



відео для новачків



 Зареєстрований:   2020-06-06 21:56
 Розмір:   5.91 GB 
 Оцінка фільму:   9.6/10 (Голосів: 5)
 ЗАЛИШАЙТЕСЬ ЯКОМОГА ДОВШЕ НА РОЗДАЧІ! ЗАВАНТАЖИВ САМ - ДАЙ ЗАВАНТАЖИТИ ІНШИМ!
   
bot 
робот


З нами з: 30.09.07
Востаннє: 26.05.05
Повідомлень: 26466

2020-06-06 21:55  
Тему перенесено з Анонси релізів до форуму Фільми


igor911

Ваш часовий пояс: GMT + 2 Години

Нова тема   Відповісти