Новий Папа (Сезон 1) / The New Pope (Season 1) (2020) Ukr/Eng

Нові коментарі

Нова тема   Відповісти
Автор Повідомлення
Цікава ідея 
VIP


З нами з: 26.12.11
Востаннє: 21.09.20
Повідомлень: 664

2020-06-05 19:00  
| AVC | 1080p

Новий Папа (Сезон 1) / The New Pope (Season 1) (2020) Ukr/Eng


Новий Папа (Сезон 1) / The New Pope (Season 1) (2020) Ukr/Eng


Якщо вам сподобалося озвучення серіалу,
то ви можете підтримати нас за посиланням
ТИЦЬ


Жанр: драма
Країна: Іспанія, Італія, США, Франція



Кінокомпанія / телеканал: HBO, Canal+, Sky Atlantic
Режисери: Паоло Соррентіно
Актори: Джуд Лоу, Джон Малкович, Сільвіо Орландо, Сесіль де Франс, Хав'єр Камара, Людівін Саньє та інші.

Сюжет:
Тепер пап буде двоє, як у середньовіччі. Когось з них мають проголосити антипапою та вбити. Чи почнеться війна у Ватикані? Хто виживе? І, схоже, що біля папи-Лоу з'являються красиві голі жінки...

Головне питання: чи вийде якійсь палкій красуні-вірянці пробити його броню? Чи будуть у них діти? І чи стануть вони папами?
Дивіться українською тільки в нашому озвученні!


Перекладено та озвучено ТО "Цікава Ідея"


Тривалість: 1 серія: ~ 50 хв. (цілком серій: 9)
Перелік серій:

01. Episode #1
02. Episode #2
03. Episode #3
04. Episode #4
05. Episode #5
06. Episode #6
07. Episode #7
08. Episode #8
09. Episode #9
Якість:
Відео:
кодек:
розмір кадру: 720 x 400
бітрейт: ~ 1 700 кб/с

Аудіо # 1:
мова: українська | "Цікава Ідея"
переклад: професійний багатоголосий закадровий
кодек: 5.1
бітрейт: 448 кб/с

Аудіо # 2:
мова: англійська
переклад: оригінал
кодек: 5.1
бітрейт: 448 кб/с
Info
Код:
Format                      : AVI
Format/Info                 : Audio Video Interleave
Format profile              : OpenDML
File size                   : 1.03 GiB
Duration                    : 58 min 35 s
Overall bit rate            : 2 520 kb/s
Movie name                  : РќРѕРІРёР№ Папа / The New Pope - S01E01 (2020) 1080p [Ukr.Eng] [Цікава Ідея]
Writing application         : Lavf58.20.100

Video
ID                          : 0
Format                      : MPEG-4 Visual
Format profile              : Advanced [email protected]
Format settings             : BVOP1
Format settings, BVOP       : 1
Format settings, QPel       : No
Format settings, GMC        : No warppoints
Format settings, Matrix     : Default (H.263)
Codec ID                    :
Codec ID/Hint               :
Duration                    : 58 min 35 s
Bit rate                    : 1 601 kb/s
Width                       : 720 pixels
Height                      : 400 pixels
Display aspect ratio        : 16:9
Frame rate                  : 25.000 FPS
Color space                 : YUV
Chroma subsampling          : 4:2:0
Bit depth                   : 8 bits
Scan type                   : Progressive
Compression mode            : Lossy
Bits/(Pixel*Frame)          : 0.222
Stream size                 : 671 MiB (64%)
Writing library             : 67

Audio #1
ID                          : 1
Format                      : AC-3
Format/Info                 : Audio Coding 3
Commercial name             : Dolby Digital
Codec ID                    : 2000
Duration                    : 58 min 35 s
Bit rate mode               : Constant
Bit rate                    : 448 kb/s
Channel(s)                  : 6 channels
Channel layout              : L R C LFE Ls Rs
Sampling rate               : 48.0 kHz
Frame rate                  : 31.250 FPS (1536 SPF)
Bit depth                   : 16 bits
Compression mode            : Lossy
Stream size                 : 188 MiB (18%)
Alignment                   : Aligned on interleaves
Interleave, duration        : 32  ms (0.80 video frame)
Title                       : Українська
Service kind                : Complete Main

Audio #2
ID                          : 2
Format                      : AC-3
Format/Info                 : Audio Coding 3
Commercial name             : Dolby Digital
Codec ID                    : 2000
Duration                    : 58 min 35 s
Bit rate mode               : Constant
Bit rate                    : 448 kb/s
Channel(s)                  : 6 channels
Channel layout              : L R C LFE Ls Rs
Sampling rate               : 48.0 kHz
Frame rate                  : 31.250 FPS (1536 SPF)
Bit depth                   : 16 bits
Compression mode            : Lossy
Stream size                 : 188 MiB (18%)
Alignment                   : Aligned on interleaves
Interleave, duration        : 32  ms (0.80 video frame)
Title                       : eng
Service kind                : Complete Main
Скріншоти



Озвучено творчим об'єднанням:
Ролі озвучили: Юля Малахова, Євген Малуха, Роман Чупіс, Олексій Сафін, Матвій Ніколаєв.
Подяка за ріпи в avi: antik_2008


Авторський реліз (завантажувати можна без реєстрації)
 Трекер:    Зареєстрований   

Завантажити / скачати серіал українською



відео для новачків



 Зареєстрований:   2020-06-05 19:00
 Розмір:   9.04 GB 
 Оцінка серіалу:   9.8/10 (Голосів: 6)
   
olzoz 
Частий відвідувач


З нами з: 04.02.17
Востаннє: 07.07.20
Повідомлень: 31

2020-07-07 19:30  
А можна до релізу додавати скільки в сезоні серій? Гадаю інформація є на вікі
Ваш часовий пояс: GMT + 2 Години

Нова тема   Відповісти