Краще подзвоніть Солу (Сезон 5) / Better Call Saul (Season 5) (2020) Ukr/Eng

Нові коментарі

Нова тема   Відповісти
Автор Повідомлення
Цікава ідея 
VIP


З нами з: 26.12.11
Востаннє: 19.09.20
Повідомлень: 663

2020-06-05 17:45  
| AVC | 1080p

Краще подзвоніть Солу (Сезон 5) / Better Call Saul (Season 5) (2020) Ukr/Eng


Краще подзвоніть Солу (Сезон 5) / Better Call Saul (Season 5) (2020) Ukr/Eng


Жанр: комедія, кримінальний, драма
Країна: США



Кінокомпанія / телеканал: Netflix, American Movie Classics (AMC), Sony Pictures Television
Режисери: Вінс Ґіліґан, Пітер Ґулд та інші.
Актори: Боб Оденкерк, Ріа Сігорн, Патрік Фабіан, Майкл Мендо, Джин Н. Чавез, Джонатан Бенкс та інші.

Сюжет:
Історія про випробування й негаразди, які доводиться подолати Солу Ґудмену, адвокату з кримінальних справ, у той період, коли він намагається відкрити власну адвокатську контору в Альбукерке, штат Нью-Мексико. Попереду тільки небезпека і шалені гроші!


Перекладено та озвучено ТО "Цікава Ідея" на замовлення HURTOM.COM


Тривалість: 1 серія: ~ 50 хв. (цілком серій: 10)
Перелік серій:

01. Magic Man
02. 50% Off
03. The Guy for This
04. Namaste
05. Dedicado a Max
06. Wexler v. Goodman
07. JMM
08. Bagman
09. Bad Choice Road
10. Something Unforgivable
Якість:
Відео:
кодек:
розмір кадру: 720 x 400
бітрейт: ~ 1 700 кб/с

Аудіо # 1:
мова: українська | "Цікава Ідея"
переклад: професійний багатоголосий закадровий
кодек: 5.1
бітрейт: 448 кб/с

Аудіо # 2:
мова: англійська
переклад: оригінал
кодек: 5.1
бітрейт: 448 кб/с
Info
Код:
Format                      : AVI
Format/Info                 : Audio Video Interleave
Format profile              : OpenDML
File size                   : 1.02 GiB
Duration                    : 54 min 21 s
Overall bit rate            : 2 679 kb/s
Movie name                  : Краще подзвоніть Солу / Better Call Saul - S05E01 (2020) 1080p [Ukr.Eng] [Цікава Ідея]
Writing application         : Lavf58.20.100

Video
ID                          : 0
Format                      : MPEG-4 Visual
Format profile              : Advanced [email protected]
Format settings             : BVOP1
Format settings, BVOP       : 1
Format settings, QPel       : No
Format settings, GMC        : No warppoints
Format settings, Matrix     : Default (H.263)
Codec ID                    :
Codec ID/Hint               :
Duration                    : 54 min 21 s
Bit rate                    : 1 761 kb/s
Width                       : 720 pixels
Height                      : 400 pixels
Display aspect ratio        : 16:9
Frame rate                  : 23.976 (24000/1001) FPS
Color space                 : YUV
Chroma subsampling          : 4:2:0
Bit depth                   : 8 bits
Scan type                   : Progressive
Compression mode            : Lossy
Bits/(Pixel*Frame)          : 0.255
Stream size                 : 685 MiB (66%)
Writing library             : 67

Audio #1
ID                          : 1
Format                      : AC-3
Format/Info                 : Audio Coding 3
Commercial name             : Dolby Digital
Codec ID                    : 2000
Duration                    : 54 min 21 s
Bit rate mode               : Constant
Bit rate                    : 448 kb/s
Channel(s)                  : 6 channels
Channel layout              : L R C LFE Ls Rs
Sampling rate               : 48.0 kHz
Frame rate                  : 31.250 FPS (1536 SPF)
Bit depth                   : 16 bits
Compression mode            : Lossy
Stream size                 : 174 MiB (17%)
Alignment                   : Aligned on interleaves
Interleave, duration        : 32  ms (0.77 video frame)
Title                       : Українська
Service kind                : Complete Main

Audio #2
ID                          : 2
Format                      : AC-3
Format/Info                 : Audio Coding 3
Commercial name             : Dolby Digital
Codec ID                    : 2000
Duration                    : 54 min 21 s
Bit rate mode               : Constant
Bit rate                    : 448 kb/s
Channel(s)                  : 6 channels
Channel layout              : L R C LFE Ls Rs
Sampling rate               : 48.0 kHz
Frame rate                  : 31.250 FPS (1536 SPF)
Bit depth                   : 16 bits
Compression mode            : Lossy
Stream size                 : 174 MiB (17%)
Alignment                   : Aligned on interleaves
Interleave, duration        : 32  ms (0.77 video frame)
Service kind                : Complete Main
Скріншоти



Озвучено творчим об'єднанням:
Ролі озвучили: Семен Птаха, Юля Малахова, Олег Савельник, Євген Малуха, Андрій Корзаченко та Олексій Сафін
Подяка за ріпи в avi: antik_2008


Авторський реліз (завантажувати можна без реєстрації)
 Трекер:    Зареєстрований   

Завантажити / скачати серіал українською



відео для новачків



 Зареєстрований:   2020-06-05 17:45
 Розмір:   9.75 GB 
 Оцінка серіалу:   10/10 (Голосів: 7)
   
Ваш часовий пояс: GMT + 2 Години

Нова тема   Відповісти