Снайпер 8: Кінець Асасіна / Sniper. Assassin's End (2020) 720p Eng | sub Ukr/Eng

Нові коментарі

Нова тема   Відповісти
Автор Повідомлення
Anonymous 







2020-06-05 12:27  
Снайпер: Кінець Асасіна / Sniper. Assassin's End (2020) 720p Eng | sub Ukr/Eng

Снайпер 8: Кінець Асасіна / Sniper. Assassin's End (2020) 720p Eng | sub Ukr/Eng


Жанр: бойовик
Країна: США



Кінокомпанія: Destination Films, Sony Pictures Home Entertainment
Режисер: Кааре Ендрюс / Kaare Andrews
Актори: Чед Майкл Коллінз / Chad Michael Collins , Том Беренджер / Tom Berenger, Саяка Акімото / Sayaka Akimoto, С. Ернст Гарт / C. Ernst Harth, Локлін Манро / Lochlyn Munro, Саша Пільцин / Sasha Piltsin, Раян Роббінс / Ryan Robbins, Майкл Джонсон / Michael Jonsson та інші.

Сюжет:
Снайпер спецназу Брендон Беккетт (Чед Майкл Коллінз) - головний підозрюваний у вбивстві іноземного високопосадовця перед підписанням важливої торгівельної угоди зі Сполученими Штатами. Ледь не загинувши, Беккет розуміє, що в уряді може бути шпигун, і починає працювати в команді з єдиною людиною, якій довіряє, - своїм батьком, легендарним снайпером сержантом Томасом Беккеттом (Том Беренджер). Обидва Беккети переховуються від ЦРУ, російських найманців та асасіна, навченого якудзою, снайперські навички якого не гірші за навички обох легендарних стрільців...

Восьма частина серії фільмів*
Офіційний трейлер:

Рейтинг MPAA: R - особам до 17 років обов'язкова присутність батьків або дорослого опікуна
Вікова категорія: 15+

Тривалість: 01:35:06
Якість: 720p

Відео:
кодек:
розмір кадру: 1280x536
бітрейт: 3965 кб/с

Аудіо:
мова: англійська
переклад: оригінал
кодек: 5.1
бітрейт: 640 кб/с

Субтитри # 1:
мова: українська
тип: програмні (м'які)
формат: *.srt
переклад: офіційний, Всеволод Іващенко

Субтитри # 2:
мова: англійська
тип: програмні (м'які)
формат: *.srt

Збережено оригінальні розділи, як на Blu-ray
Info
Код:
Complete name               : Sniper 8. Assassins End (2020) [Eng sub.Ukr,Eng] 720p [Hurtom].
Format                      :
Format version              : Version 4
File size                   : 3.06 GiB
Duration                    : 1 h 35 min
Overall bit rate            : 4 608 kb/s
Movie name                  : Снайпер: Кінець Асасіна / Sniper. Assassin's End (2020) [Eng sub.Ukr,Eng] 720p [Hurtom]
Encoded date                : UTC 2020-06-07 14:02:39
Writing application         : v47.0.0 ('Black Flag') 64-bit
Writing library             : libebml v1.3.10 + v1.5.2
Cover                       : Yes
Attachments                 : cover.jpg

Video
ID                          : 1
Format                      : AVC
Format/Info                 : Advanced Video Codec
Format profile              : [email protected]
Format settings             : CABAC / 12 Ref Frames
Format settings, CABAC      : Yes
Format settings, Reference  : 12 frames
Codec ID                    : V_MPEG4/ISO/AVC
Duration                    : 1 h 35 min
Bit rate                    : 3 965 kb/s
Width                       : 1 280 pixels
Height                      : 536 pixels
Display aspect ratio        : 2.40:1
Frame rate mode             : Constant
Frame rate                  : 23.976 (24000/1001) FPS
Color space                 : YUV
Chroma subsampling          : 4:2:0
Bit depth                   : 8 bits
Scan type                   : Progressive
Bits/(Pixel*Frame)          : 0.241
Stream size                 : 2.63 GiB (86%)
Title                       : Снайпер: Кінець Асасіна / Sniper. Assassin's End (2020) 720p [seleZen]
Writing library             : core 160 r3000+53 e3e4c3e t_mod_New [(8 & 10)[email protected] X86_64]
Encoding settings           : cabac=1 / ref=12 / deblock=1:-3:-3 / analyse=0x3:0x133 / me=umh / subme=10 / psy=1 / fade_compensate=0.00 / psy_rd=1.00:0.00 / mixed_ref=1 / me_range=32 / chroma_me=1 / trellis=2 / 8x8dct=1 / cqm=0 / deadzone=21,11 / fast_pskip=0 / chroma_qp_offset=-2 / threads=16 / lookahead_threads=4 / sliced_threads=0 / nr=0 / decimate=0 / interlaced=0 / bluray_compat=0 / constrained_intra=0 / fgo=0 / bframes=12 / b_pyramid=2 / b_adapt=2 / b_bias=0 / direct=3 / weightb=1 / open_gop=0 / weightp=2 / keyint=480 / keyint_min=24 / scenecut=40 / intra_refresh=0 / rc_lookahead=80 / rc=crf / mbtree=0 / crf=16.5000 / qcomp=0.60 / qpmin=0:0:0 / qpmax=69:69:69 / qpstep=4 / vbv_maxrate=62500 / vbv_bufsize=78125 / crf_max=0.0 / nal_hrd=none / filler=0 / ip_ratio=1.30 / pb_ratio=1.20 / aq=3:0.80 / aq-sensitivity=10.00 / aq-factor=1.00:1.00:1.00 / aq2=0 / aq3=0
Language                    : English
Default                     : Yes
Forced                      : No
Color range                 : Limited
Color primaries             : BT.709
Transfer characteristics    : BT.709
Matrix coefficients         : BT.709

Audio
ID                          : 2
Format                      : AC-3
Format/Info                 : Audio Coding 3
Commercial name             : Dolby Digital
Codec ID                    : A_AC3
Duration                    : 1 h 35 min
Bit rate mode               : Constant
Bit rate                    : 640 kb/s
Channel(s)                  : 6 channels
Channel layout              : L R C LFE Ls Rs
Sampling rate               : 48.0 kHz
Frame rate                  : 31.250 FPS (1536 SPF)
Compression mode            : Lossy
Stream size                 : 435 MiB (14%)
Title                       : Original, 5.1 640 Kbps
Language                    : English
Service kind                : Complete Main
Default                     : Yes
Forced                      : No

Text #1
ID                          : 3
Format                      : UTF-8
Codec ID                    : S_TEXT/UTF8
Codec ID/Info               : UTF-8 Plain Text
Duration                    : 1 h 34 min
Bit rate                    : 85 b/s
Count of elements           : 935
Stream size                 : 59.3 KiB (0%)
Title                       : Ukr Full [Official]
Language                    : Ukrainian
Default                     : Yes
Forced                      : Yes

Text #2
ID                          : 4
Format                      : UTF-8
Codec ID                    : S_TEXT/UTF8
Codec ID/Info               : UTF-8 Plain Text
Duration                    : 1 h 29 min
Bit rate                    : 49 b/s
Count of elements           : 901
Stream size                 : 32.7 KiB (0%)
Title                       : Eng Full
Language                    : English
Default                     : No
Forced                      : No

Menu
00:00:00.000                : en:Chapter 1
00:06:06.783                : en:Chapter 2
00:13:02.073                : en:Chapter 3
00:19:36.592                : en:Chapter 4
00:25:37.745                : en:Chapter 5
00:31:26.593                : en:Chapter 6
00:37:11.938                : en:Chapter 7
00:42:04.480                : en:Chapter 8
00:47:22.715                : en:Chapter 9
00:53:11.313                : en:Chapter 10
01:01:50.916                : en:Chapter 11
01:05:07.320                : en:Chapter 12
01:08:12.672                : en:Chapter 13
01:12:33.516                : en:Chapter 14
01:19:43.320                : en:Chapter 15
01:28:07.949                : en:Chapter 16



Джерело: &
Подяка за надані субтитри п. sub.Trader (subscene.com)

* Інші частини цієї серії фільмів (з посиланнями на пошук релізів):
Снайпер / Sniper (1993)
Снайпер 2 / Sniper 2 (2002)
Снайпер 3 / Sniper 3 (2004)
Снайпер 4: Перезавантаження / Sniper: Reloaded (2011)
Снайпер 5: Спадок / Sniper: Legacy (2014)
Снайпер 6: Воїн-привид / Sniper: Ghost Shooter (2016)
Снайпер 7: Ідеальне вбивство / Sniper: Ultimate Kill (2017)


Історія релізу:
05.06.2015 початковий реліз -AVC з українськими субтитрами
07.06.2020 реліз оновлено: замінено відеоряд на якісніший ( 720p)


Золотий реліз (завантажене не впливає на рейтинг)
 Трекер:    Зареєстрований   

Завантажити / скачати фільм українською



відео для новачків



 Зареєстрований:   2020-06-07 18:20
 Розмір:   3.06 GB 
 Оцінка фільму:   8.2/10 (Голосів: 20)
 ЗАЛИШАЙТЕСЬ ЯКОМОГА ДОВШЕ НА РОЗДАЧІ! ЗАВАНТАЖИВ САМ - ДАЙ ЗАВАНТАЖИТИ ІНШИМ!
   
Anonymous 







2020-06-05 22:52  
Додав в опис посилання на решту сім частин цієї серії фільмів (на сьогодні релізи є до всіх, крім 5ї частини).
leicheman 
Відео Гуртом - фільмокрай
Відео Гуртом - фільмокрай


З нами з: 03.07.14
Востаннє: 12.07.20
Повідомлень: 5133

2020-06-05 23:04  
Anonymous написано:
крім 5ї частини

є саби з нетфліксу

kuts-vv 
VIP


З нами з: 11.12.11
Востаннє: 12.07.20
Повідомлень: 313

2020-06-06 02:27  
Хороший фільм. Навіть напрочуд цікавий. Не має такого, що когось просто виставляють ідіотами. Та й діалоги не затягнуті, тому із субтитрами цілком можна дивитися. Враження не псують. Дякую.
[Captain] 
Попереджень: 1
Попереджень: 1 


З нами з: 19.02.12
Востаннє: 12.07.20
Повідомлень: 2324

2020-06-06 12:38  
У всякого фільму своя аудиторія
Anonymous 







2020-06-06 23:37  
leicheman написано:
є саби з нетфліксу

Дякую, п'ятий фільм: Снайпер 5: Спадок / Sniper: Legacy (2014)

Anonymous 







2020-06-07 19:10  
Реліз оновлено: замінено відеоряд на якісніший (-AVC --> 720p)
PandaWCB 
Частий відвідувач


З нами з: 14.02.12
Востаннє: 10.07.20
Повідомлень: 34

2020-06-10 09:33  
А звідки рейтинг IMDB 7.4, якщо на IMDB ніякої цифри нема?
Anonymous 







2020-06-10 09:42  
PandaWCB написано:
А звідки рейтинг IMDB 7.4, якщо на IMDB ніякої цифри нема?

Невідомо Happy Зображення рейтингу автоматично генерується скриптом на Толоці, можливо воно береться через якийсь API, хоча саме значення на IMBD не виводиться до офіційної прем'єри, що відбудеться 16 червня.

PandaWCB 
Частий відвідувач


З нами з: 14.02.12
Востаннє: 10.07.20
Повідомлень: 34

2020-06-10 09:47  
Anonymous
Ясно. Дякую. )))))

Electroz 
Відео Гуртом - підтримка та поширення
Відео Гуртом - підтримка та поширення


З нами з: 18.09.14
Востаннє: 12.07.20
Повідомлень: 3951

2020-06-10 09:48  
PandaWCB написано:
А звідки рейтинг IMDB 7.4, якщо на IMDB ніякої цифри нема?

Релізер вказав невірне посилання на imdb.
https://imdb.com/title/tt1230569/ парситься цей фільм.

Anonymous 







2020-06-10 10:13  
Electroz написано:
https://imdb.com/title/tt1230569/ парситься цей фільм.

Дійсно, дякую, виправив. Загубилась одна цифра в кінці (tt12305696), хоча ніби оформляв анонс через "Майстер оформлення релізу".

Додано через 3 хвилини 46 секунд:

Перевірив - дійсно, при оформленні через майстер "з'їдається" остання цифра з посилання imdb при генерації зображення рейтингу.

Додано через 49 секунд:

Electroz написано:
невірне посилання на imdb

посилання якраз було вірне

Ваш часовий пояс: GMT + 2 Години

Нова тема   Відповісти