Паперовий будинок (Сезон 4) / La Casa de Papel / Money Heist (Season 4) (2020) AVC Ukr/Spa | Sub Eng

Нові коментарі

Нова тема   Відповісти
Автор Повідомлення
Цікава ідея 
VIP


З нами з: 26.12.11
Востаннє: 25.09.20
Повідомлень: 666

2020-06-04 23:13  
1 сезон: | AVC | 1080p
2 сезон: | AVC | 1080p
3 сезон: | AVC | 1080p
4 сезон: | AVC | 1080p

Паперовий будинок (Сезон 4) / La Casa de Papel / Money Heist (Season 4) (2020) AVC Ukr/Spa | Sub Eng


Паперовий будинок (Сезон 4) / La Casa de Papel / Money Heist (Season 4) (2020) AVC Ukr/Spa | Sub Eng


Жанр: бойовик, детектив, кримінальний, трилер
Країна: Іспанія



Кінокомпанія / телеканал: Vancouver Media, Netflix
Режисери: Хесус Кольменар, Алекс Родріго, Алехандро Бассоно
Актори: Едан Мосес, Урсула Корберо, Іціар Ітуньйо, Альваро Морте, Педро Алонсо, Альба Флоренс, Мігель Ерран

Сюжет:
Щоб здійснити найбільше пограбування в історії таємничий «Професор» знаходить вісім грабіжників, яким нічого втрачати. П'ять місяців підготовки й тренувань, щоб пограбувати одне з найбільш захищених місць Іспанії - Національний монетний двір.


Перекладено та озвучено ТО "Цікава Ідея" за підтримки fishMD


Тривалість: 1 серія: ~ 40 хв. (цілком серій: 8)
Перелік серій:

01. Episode 1
02. Episode 2
03. Episode 3
04. Episode 4
05. Episode 5
06. Episode 6
07. Episode 7
08. Episode 8
Якість: AVC
Відео:
кодек:
розмір кадру: 720 x 400
бітрейт: 1 100 кб/с

Аудіо # 1:
мова: українська | "Цікава Ідея"
переклад: професійний багатоголосий закадровий
кодек: 5.1
бітрейт: 448 кб/с

Аудіо # 2:
мова: іспанська
переклад: оригінал
кодек: E- 5.1
бітрейт: 640 кб/с

Субтитри:
мова: англійська
тип: програмні (м'які)
формат: *.srt
Info
Код:
Format                      :
Format version              : Version 4
File size                   : 825 MiB
Duration                    : 52 min 48 s
Overall bit rate            : 2 186 kb/s
Movie name                  : Паперовий будинок / Money Heist - S04E01 (2020) AVC [Ukr.Spa] [Цікава Ідея]
Encoded date                : UTC 2020-06-04 19:42:21
Writing application         : v6.8.0 ('Theme for Great Cities') 32bit built on Mar  2 2014 21:27:07
Writing library             : libebml v1.3.0 + v1.4.1
Cover                       : Yes
Attachments                 : cover.png

Video
ID                          : 1
Format                      : AVC
Format/Info                 : Advanced Video Codec
Format profile              : [email protected]
Format settings             : CABAC / 5 Ref Frames
Format settings, CABAC      : Yes
Format settings, Reference  : 5 frames
Codec ID                    : V_MPEG4/ISO/AVC
Duration                    : 52 min 48 s
Bit rate                    : 1 100 kb/s
Width                       : 720 pixels
Height                      : 400 pixels
Display aspect ratio        : 16:9
Frame rate mode             : Constant
Frame rate                  : 24.000 FPS
Color space                 : YUV
Chroma subsampling          : 4:2:0
Bit depth                   : 8 bits
Scan type                   : Progressive
Bits/(Pixel*Frame)          : 0.159
Stream size                 : 398 MiB (48%)
Writing library             : core 148 r2795M aaa9aa8
Encoding settings           : cabac=1 / ref=5 / deblock=1:-1:-1 / analyse=0x3:0x113 / me=umh / subme=9 / psy=1 / psy_rd=1.00:0.15 / mixed_ref=1 / me_range=16 / chroma_me=1 / trellis=2 / 8x8dct=1 / cqm=0 / deadzone=21,11 / fast_pskip=1 / chroma_qp_offset=-3 / threads=24 / lookahead_threads=2 / sliced_threads=0 / nr=0 / decimate=1 / interlaced=0 / bluray_compat=0 / constrained_intra=0 / bframes=3 / b_pyramid=2 / b_adapt=2 / b_bias=0 / direct=3 / weightb=1 / open_gop=0 / weightp=2 / keyint=250 / keyint_min=24 / scenecut=40 / intra_refresh=0 / rc_lookahead=50 / rc=abr / mbtree=1 / bitrate=1100 / ratetol=1.0 / qcomp=0.60 / qpmin=0 / qpmax=69 / qpstep=4 / ip_ratio=1.40 / aq=1:1.00
Default                     : Yes
Forced                      : No

Audio #1
ID                          : 2
Format                      : AC-3
Format/Info                 : Audio Coding 3
Commercial name             : Dolby Digital
Codec ID                    : A_AC3
Duration                    : 52 min 48 s
Bit rate mode               : Constant
Bit rate                    : 448 kb/s
Channel(s)                  : 6 channels
Channel layout              : L R C LFE Ls Rs
Sampling rate               : 48.0 kHz
Frame rate                  : 31.250 FPS (1536 SPF)
Bit depth                   : 16 bits
Compression mode            : Lossy
Stream size                 : 169 MiB (20%)
Title                       : Українська
Language                    : Ukrainian
Service kind                : Complete Main
Default                     : Yes
Forced                      : No

Audio #2
ID                          : 3
Format                      : E-AC-3
Format/Info                 : Enhanced AC-3
Commercial name             : Dolby Digital Plus
Codec ID                    : A_EAC3
Duration                    : 52 min 48 s
Bit rate mode               : Constant
Bit rate                    : 640 kb/s
Channel(s)                  : 6 channels
Channel layout              : L R C LFE Ls Rs
Sampling rate               : 48.0 kHz
Frame rate                  : 31.250 FPS (1536 SPF)
Compression mode            : Lossy
Stream size                 : 242 MiB (29%)
Title                       : European Spanish
Language                    : Spanish
Service kind                : Complete Main
Default                     : No
Forced                      : No

Text
ID                          : 4
Format                      : UTF-8
Codec ID                    : S_TEXT/UTF8
Codec ID/Info               : UTF-8 Plain Text
Title                       : English
Language                    : English
Default                     : No
Forced                      : No
Скріншоти



Озвучено творчим об'єднанням:
Переклад: Федір Сидорук.
Ролі озвучили: Семен Птаха, Олексій Сафін, Юлія Малахова, Андрій Корзаченко та Олександр Чернов.


Авторський реліз (завантажувати можна без реєстрації)
 Трекер:    Зареєстрований   

Завантажити / скачати серіал українською



відео для новачків



 Зареєстрований:   2020-06-04 23:13
 Розмір:   6.02 GB 
 Оцінка серіалу:   9.3/10 (Голосів: 39)
   
Цікава ідея 
VIP


З нами з: 26.12.11
Востаннє: 25.09.20
Повідомлень: 666

2020-06-04 23:19  
Друзі, ми переклали та озвучили 4й сезон!

Бажаємо приємного перегляду.

[email protected] 
Новенький


З нами з: 05.05.18
Востаннє: 25.09.20
Повідомлень: 9

2020-06-08 18:40  
Дякую за озвучення серіалу
Самий цікавий серіал з того що дивився за останній час

ihor72 
Свій


З нами з: 17.05.10
Востаннє: 25.09.20
Повідомлень: 117

2020-06-12 18:00  
Чи хто знає коли буде продовження?
Сумрач 
Новенький


З нами з: 30.09.19
Востаннє: 25.09.20
Повідомлень: 1

2020-06-13 15:02  
Серіал нормальний. Переклад супер

Додано через 58 секунд:

ihor72
в травні 21 року(в неті так пишуть)

ihor72 
Свій


З нами з: 17.05.10
Востаннє: 25.09.20
Повідомлень: 117

2020-06-14 13:45  
Сумрач
Дякую.

380977342889 
Новенький


З нами з: 23.10.15
Востаннє: 03.09.20
Повідомлень: 2

2020-07-18 15:50  
Серіал просто офігенний, всі 4 сезони!!! 10 з 10!!!
qarty1 
VIP


З нами з: 01.11.09
Востаннє: 25.09.20
Повідомлень: 385

2020-07-30 23:00  
мда...перші два сезони можуть бути а два останіх фігня повна, раельності нуль одна фантастика, мильна опера(( 6/10
don pedro 
Попереджень: 1
Попереджень: 1 


З нами з: 29.06.11
Востаннє: 25.09.20
Повідомлень: 17756

2020-08-27 00:11  
Безглуздя поглиблюється. Серіал перетворився у суміш бойовика та родинної мелодрами. Тривають марні та натужні спроби виставити професійних грабіжників якимись гуманістами та ледь не повстанцями. Те, що в одній з серій показано, як після влучання двох (!) гранат з РПГ у бляшаний броньовик і ніхто в ньому не загинув просто викликає регіт. Тривають цілком зайві відсилання назад (мабуть, з метою використати улюблених мертвих дійових осіб з перших сезонів) з постійною балаканиною, піснями та сльозами. Разом з тим, Берлін виставлений абсолютним відморозком в частині того, як він невимушено оскоплює виделкою(!) якогось товстуна в віходку, що зовсім не схоже на його образ з двох перших сезонів.
Різко посилили ЛГБТ-лінію, яка є цілком надуманою і недоречною.
Вагітна поліціянтка явний уклін у бік "Фарго" Коенів", який ще раз показує цілковиту дурнуватість останніх двох сезонів.
Загалом, якщо ви дуже любите перші два сезони, то дивитись ОЦЕ не варто. Не псуйте собі враження. Третій і четвертий сезони - зразок того, що гроші не завжди йдуть на користь мистецтву.

Ваш часовий пояс: GMT + 2 Години

Нова тема   Відповісти