Паперовий будинок (Сезон 4) / La Casa de Papel / Money Heist (Season 4) (2020) 1080p Ukr/Spa | Sub Eng

Нові коментарі

Нова тема   Відповісти
Автор Повідомлення
Цікава ідея 
VIP


З нами з: 25.12.11
Востаннє: 29.11.20
Повідомлень: 729

2020-06-04 21:53  
1 сезон: | AVC | 1080p
2 сезон: | AVC | 1080p
3 сезон: | AVC | 1080p
4 сезон: | AVC | 1080p

Паперовий будинок (Сезон 4) / La Casa de Papel / Money Heist (Season 4) (2020) 1080p Ukr/Spa | Sub Eng


Паперовий будинок (Сезон 4) / La Casa de Papel / Money Heist (Season 4) (2020) 1080p Ukr/Spa | Sub Eng


Якщо вам сподобалося озвучення серіалу,
то ви можете підтримати нас за посиланням
ТИЦЬ


Жанр: бойовик, детектив, кримінальний, трилер
Країна: Іспанія



Кінокомпанія / телеканал: Vancouver Media, Netflix
Режисери: Хесус Кольменар, Алекс Родріго, Алехандро Бассоно
Актори: Едан Мосес, Урсула Корберо, Іціар Ітуньйо, Альваро Морте, Педро Алонсо, Альба Флоренс, Мігель Ерран

Сюжет:
Щоб здійснити найбільше пограбування в історії таємничий «Професор» знаходить вісім грабіжників, яким нічого втрачати. П'ять місяців підготовки й тренувань, щоб пограбувати одне з найбільш захищених місць Іспанії - Національний монетний двір.


Перекладено та озвучено ТО "Цікава Ідея" за підтримки fishMD


Тривалість: 1 серія: ~ 40 хв. (цілком серій: 8)
Перелік серій:

01. Episode 1
02. Episode 2
03. Episode 3
04. Episode 4
05. Episode 5
06. Episode 6
07. Episode 7
08. Episode 8
Якість: 1080p
Відео:
кодек:
розмір кадру: 1920 x 1080
бітрейт: ~ 6000 кб/с

Аудіо # 1:
мова: українська | "Цікава Ідея"
переклад: професійний багатоголосий закадровий
кодек: 5.1
бітрейт: 448 кб/с

Аудіо # 2:
мова: іспанська
переклад: оригінал
кодек: E- 5.1
бітрейт: 640 кб/с

Субтитри:
мова: англійська
тип: програмні (м'які)
формат: *.srt
Info
Код:
Format                      :
Format version              : Version 4
File size                   : 2.15 GiB
Duration                    : 52 min 48 s
Overall bit rate mode       : Variable
Overall bit rate            : 5 842 kb/s
Movie name                  : Паперовий будинок / Money Heist - S04E01 (2020) 1080p [Ukr.Spa] [Цікава Ідея]
Encoded date                : UTC 2020-06-04 19:01:45
Writing application         : v6.8.0 ('Theme for Great Cities') 32bit built on Mar  2 2014 21:27:07
Writing library             : libebml v1.3.0 + v1.4.1
Cover                       : Yes
Attachments                 : cover.png

Video
ID                          : 1
Format                      : AVC
Format/Info                 : Advanced Video Codec
Format profile              : [email protected]
Format settings             : CABAC / 3 Ref Frames
Format settings, CABAC      : Yes
Format settings, Reference  : 3 frames
Codec ID                    : V_MPEG4/ISO/AVC
Duration                    : 52 min 48 s
Bit rate mode               : Variable
Bit rate                    : 4 638 kb/s
Nominal bit rate            : 4 870 kb/s
Maximum bit rate            : 7 305 kb/s
Width                       : 1 920 pixels
Height                      : 1 080 pixels
Display aspect ratio        : 16:9
Frame rate mode             : Constant
Frame rate                  : 24.000 FPS
Color space                 : YUV
Chroma subsampling          : 4:2:0
Bit depth                   : 8 bits
Scan type                   : Progressive
Bits/(Pixel*Frame)          : 0.093
Stream size                 : 1.71 GiB (79%)
Writing library             : core 148 r2717 0d2410d
Encoding settings           : cabac=1 / ref=3 / deblock=1:0:0 / analyse=0x1:0x111 / me=umh / subme=10 / psy=1 / psy_rd=1.00:0.00 / mixed_ref=1 / me_range=24 / chroma_me=1 / trellis=2 / 8x8dct=0 / cqm=0 / deadzone=21,11 / fast_pskip=1 / chroma_qp_offset=-2 / threads=8 / lookahead_threads=1 / sliced_threads=0 / nr=0 / decimate=1 / interlaced=0 / bluray_compat=0 / stitchable=1 / constrained_intra=0 / bframes=2 / b_pyramid=0 / b_adapt=2 / b_bias=0 / direct=3 / weightb=1 / open_gop=0 / weightp=2 / keyint=250 / keyint_min=24 / scenecut=0 / intra_refresh=0 / rc_lookahead=48 / rc=2pass / mbtree=1 / bitrate=4870 / ratetol=1.0 / qcomp=0.50 / qpmin=6 / qpmax=51 / qpstep=4 / cplxblur=20.0 / qblur=0.5 / vbv_maxrate=7305 / vbv_bufsize=9740 / nal_hrd=vbr / filler=0 / ip_ratio=1.40 / aq=1:1.00
Default                     : Yes
Forced                      : No

Audio #1
ID                          : 2
Format                      : AC-3
Format/Info                 : Audio Coding 3
Commercial name             : Dolby Digital
Codec ID                    : A_AC3
Duration                    : 52 min 48 s
Bit rate mode               : Constant
Bit rate                    : 448 kb/s
Channel(s)                  : 6 channels
Channel layout              : L R C LFE Ls Rs
Sampling rate               : 48.0 kHz
Frame rate                  : 31.250 FPS (1536 SPF)
Bit depth                   : 16 bits
Compression mode            : Lossy
Stream size                 : 169 MiB (8%)
Title                       : Українська
Language                    : Ukrainian
Service kind                : Complete Main
Default                     : Yes
Forced                      : No

Audio #2
ID                          : 3
Format                      : E-AC-3
Format/Info                 : Enhanced AC-3
Commercial name             : Dolby Digital Plus
Codec ID                    : A_EAC3
Duration                    : 52 min 48 s
Bit rate mode               : Constant
Bit rate                    : 640 kb/s
Channel(s)                  : 6 channels
Channel layout              : L R C LFE Ls Rs
Sampling rate               : 48.0 kHz
Frame rate                  : 31.250 FPS (1536 SPF)
Compression mode            : Lossy
Stream size                 : 242 MiB (11%)
Title                       : European Spanish
Language                    : Spanish
Service kind                : Complete Main
Default                     : No
Forced                      : No

Text
ID                          : 4
Format                      : UTF-8
Codec ID                    : S_TEXT/UTF8
Codec ID/Info               : UTF-8 Plain Text
Title                       : English
Language                    : English
Default                     : No
Forced                      : No
Скріншоти



Озвучено творчим об'єднанням:
Переклад: Федір Сидорук.


Авторський реліз (завантажувати можна без реєстрації)
 Трекер:    Зареєстрований   

Завантажити / скачати серіал українською



відео для новачків



 Зареєстрований:   2020-06-04 21:53
 Розмір:   13.21 GB 
 Оцінка серіалу:   9.5/10 (Голосів: 42)
   
Цікава ідея 
VIP


З нами з: 25.12.11
Востаннє: 29.11.20
Повідомлень: 729

2020-06-04 22:19  
Друзі, ми переклали та озвучили 4й сезон!

Бажаємо приємного перегляду!

matway1602 
Новенький


З нами з: 28.12.15
Востаннє: 27.11.20
Повідомлень: 11

2020-06-04 22:35  
ДУЖЕ ДЯКУЮ ЗА ВАШУ РОБОТУ!
SurFutur 
VIP


З нами з: 12.03.15
Востаннє: 29.11.20
Повідомлень: 511

2020-06-04 22:42  
matway1602 написано:
ДУЖЕ ДЯКУЮ ЗА ВАШУ РОБОТУ!

Приєднуюсь!

Додано через 1 хвилину 54 секунди:

А не плануєте озвучити ще й невеличку документалку, що вийшла разом із 4 сезоном і присвячена феномену серіалу: https://www.netflix.com/ua/title/81098822 ?

antik_2008 
Релізер і модератор відео


З нами з: 20.10.08
Востаннє: 29.11.20
Повідомлень: 4381

2020-06-04 22:46  
matway1602 написано:
ДУЖЕ ДЯКУЮ ЗА ВАШУ РОБОТУ!

2.7 Зловживати заголовними буквами

Загальні правила користування Торрент-Толокою

і плюс дякую
кнопка є

Цікава ідея 
VIP


З нами з: 25.12.11
Востаннє: 29.11.20
Повідомлень: 729

2020-06-04 22:47  
SurFutur написано:
А не плануєте озвучити ще й невеличку документалку, що вийшла разом із 4 сезоном і присвячена феномену серіалу: https://www.netflix.com/ua/title/81098822 ?

Не планували, але зробимо для повного щастя)

Додано через 55 секунд:

antik_2008 написано:
2.7 Зловживати заголовними буквами

А якщо радості немає меж? Де таку кнопку знайти?))

antik_2008 
Релізер і модератор відео


З нами з: 20.10.08
Востаннє: 29.11.20
Повідомлень: 4381

2020-06-04 22:51  
Цікава ідея написано:
А якщо радості немає меж? Де таку кнопку знайти?))

Тоді маленькими писати ))

trubo4kaa 
Новенький


З нами з: 27.02.10
Востаннє: 27.11.20
Повідомлень: 15

2020-06-05 09:34  
Дякую, ви так вчасно! 😍
Original22 
Новенький


З нами з: 25.10.12
Востаннє: 29.11.20
Повідомлень: 2

2020-06-10 19:36  
Серіал супер! Всім рекомендую.

Додано через 6 хвилин 48 секунд:

А коли чекати 9ту серію і далі?

starlost 
VIP


З нами з: 06.08.15
Востаннє: 29.11.20
Повідомлень: 610

2020-06-10 19:44  
Original22 написано:
А коли чекати 9ту серію і далі?

??

AnubiS 
VIP


З нами з: 10.05.09
Востаннє: 29.11.20
Повідомлень: 398

2020-06-10 21:06  
Original22
У 5-му сезоні ))

Estranded 
VIP


З нами з: 09.02.14
Востаннє: 29.11.20
Повідомлень: 1527

2020-08-10 21:29  
В третьому сезоні вивели серіал на зовсім новий рівень, видно, що за справу взявся нетфлікс. А цей так просто бомба з шаленим темпом подій.
Все стало дуже масштабним. Ще й вдалося припасувати політику - безпрограшний варіант.
І навіть ЛГБТ-набір від нетфлікса не спаскудив цей сезон. Серіалу однозначно 10/10!
Єдиний недолік - відкритий фінал, знову чекати цілий рік:с

RomahaDj 
Свій


З нами з: 17.12.12
Востаннє: 27.11.20
Повідомлень: 57

2020-09-11 23:45  
Чудовий серіал! Дякую!
Ваш часовий пояс: GMT + 2 Години

Нова тема   Відповісти