Сексуальне виховання (Сезон 2) / Sex Education (Season 2) (2020) Ukr/Eng

Нові коментарі

Нова тема   Відповісти
Автор Повідомлення
Цікава ідея 
VIP


З нами з: 26.12.11
Востаннє: 28.09.20
Повідомлень: 668

2020-06-04 16:15  
1 сезон: | AVC | 1080p
2 сезон: | AVC | 1080p

Сексуальне виховання (Сезон 2) / Sex Education (Season 2) (2020) Ukr/Eng


Сексуальне виховання (Сезон 2) / Sex Education (Season 2) (2020) Ukr/Eng


Якщо вам сподобалося озвучення серіалу,
то ви можете підтримати нас за посиланням
ТИЦЬ


Жанр: комедія, драма
Країна: США, Велика Британія



Кінокомпанія / телеканал: Eleven, Netflix
Автор: Лорі Нанн
Режисери: Кейт Геррон, Бен Тейлор
Актори: Ейса Баттерфілд, Джилліан Андерсон, Емма Мекі, Нкуті Ґатва, Коннор Свінделлз, Еймі Лу Вуд, Алістер Петрі, Кедар Вілльямс-Стерлінґ, Мікаель Персбрандт, Патриша Аллісон

Сюжет:
Однокласниця підбиває закомплексованого підлітка, мама якого працює секс-терапевтом, організувати підпільні консультації на тему сексу у школі.


Перекладено та озвучено ТО "Цікава Ідея" за підтримки сайту UASERIALS.PRO


Український трейлер в нашому озвученні.


ЯКЩО НЕ ПРАЦЮЄ ТИЦЬ СЮДИ


Тривалість: 1 серія: ~ 50 хв (цілком серій: 8)
Перелік серій:

01. Episode #1
02. Episode #2
03. Episode #3
04. Episode #4
05. Episode #5
06. Episode #6
07. Episode #7
08. Episode #8
Якість:
Відео:
кодек:
розмір кадру: 704 x 352
бітрейт: ~ 1900 кб/с

Аудіо # 1:
мова: українська | "Цікава Ідея"
переклад: професійний багатоголосий закадровий
кодек: 5.1
бітрейт: 448 кб/с

Аудіо # 2:
мова: англійська
переклад: оригінал
кодек: 5.1
бітрейт: 448 кб/с
Info
Код:
Format                      : AVI
Format/Info                 : Audio Video Interleave
Format profile              : OpenDML
File size                   : 1.01 GiB
Duration                    : 51 min 18 s
Overall bit rate            : 2 814 kb/s
Movie name                  : Сексуальне виховання / Sex Education - S02E01 (2020) 1080p [Ukr.Eng] [Цікава Ідея]
Writing application         : Lavf58.20.100

Video
ID                          : 0
Format                      : MPEG-4 Visual
Format profile              : Advanced [email protected]
Format settings             : BVOP1
Format settings, BVOP       : 1
Format settings, QPel       : No
Format settings, GMC        : No warppoints
Format settings, Matrix     : Default (H.263)
Codec ID                    :
Codec ID/Hint               :
Duration                    : 51 min 18 s
Bit rate                    : 1 896 kb/s
Width                       : 704 pixels
Height                      : 352 pixels
Display aspect ratio        : 2.000
Frame rate                  : 25.000 FPS
Color space                 : YUV
Chroma subsampling          : 4:2:0
Bit depth                   : 8 bits
Scan type                   : Progressive
Compression mode            : Lossy
Bits/(Pixel*Frame)          : 0.306
Stream size                 : 696 MiB (67%)
Writing library             : 67

Audio #1
ID                          : 1
Format                      : AC-3
Format/Info                 : Audio Coding 3
Commercial name             : Dolby Digital
Codec ID                    : 2000
Duration                    : 51 min 16 s
Bit rate mode               : Constant
Bit rate                    : 448 kb/s
Channel(s)                  : 6 channels
Channel layout              : L R C LFE Ls Rs
Sampling rate               : 48.0 kHz
Frame rate                  : 31.250 FPS (1536 SPF)
Bit depth                   : 16 bits
Compression mode            : Lossy
Stream size                 : 164 MiB (16%)
Alignment                   : Aligned on interleaves
Interleave, duration        : 32  ms (0.80 video frame)
Title                       : Українська
Service kind                : Complete Main

Audio #2
ID                          : 2
Format                      : AC-3
Format/Info                 : Audio Coding 3
Commercial name             : Dolby Digital
Codec ID                    : 2000
Duration                    : 51 min 16 s
Bit rate mode               : Constant
Bit rate                    : 448 kb/s
Channel(s)                  : 6 channels
Channel layout              : L R C LFE Ls Rs
Sampling rate               : 48.0 kHz
Frame rate                  : 31.250 FPS (1536 SPF)
Bit depth                   : 16 bits
Compression mode            : Lossy
Stream size                 : 164 MiB (16%)
Alignment                   : Aligned on interleaves
Interleave, duration        : 32  ms (0.80 video frame)
Title                       : English
Service kind                : Complete Main
Скріншоти



Озвучено творчим об'єднанням:
Ролі озвучили: Семен Птаха, Юлія Малахова, Матвій Ніколаєв, Анна Пелех, Олексій Сафін, Олександр Чернов та Андрій Корзаченко
Подяка за ріпи в avi: antik_2008


Авторський реліз (завантажувати можна без реєстрації)
 Трекер:    Зареєстрований   

Завантажити / скачати серіал українською



відео для новачків



 Зареєстрований:   2020-06-04 16:15
 Розмір:   8.02 GB 
 Оцінка серіалу:   9/10 (Голосів: 18)
   
007qwe 
Новенький


З нами з: 24.11.12
Востаннє: 27.09.20
Повідомлень: 12

2020-06-08 18:41  
дякую, крутецький серіал
taksist 
Попереджень: 1
Попереджень: 1 


З нами з: 10.12.12
Востаннє: 28.09.20
Повідомлень: 453

2020-09-27 08:54  
Education в контексті серіялу освіта, не виховання.
Ваш часовий пояс: GMT + 2 Години

Нова тема   Відповісти