Сексуальне виховання (Сезон 1) / Sex Education (Season 1) (2019) Ukr/Eng

Нові коментарі

Нова тема   Відповісти
Автор Повідомлення
Цікава ідея 
VIP


З нами з: 26.12.11
Востаннє: 22.09.20
Повідомлень: 664

2020-06-04 16:14  
1 сезон: | AVC | 1080p
2 сезон: | AVC | 1080p

Сексуальне виховання (Сезон 1) / Sex Education (Season 1) (2019) Ukr/Eng


Сексуальне виховання (Сезон 1) / Sex Education (Season 1) (2019) Ukr/Eng


Якщо вам сподобалося озвучення серіалу,
то ви можете підтримати нас за посиланням
ТИЦЬ


Жанр: комедія, драма
Країна: США, Велика Британія



Кінокомпанія / телеканал: Eleven, Netflix
Автор: Лорі Нанн
Режисери: Кейт Геррон, Бен Тейлор
Актори: Ейса Баттерфілд, Джилліан Андерсон, Емма Мекі, Нкуті Ґатва, Коннор Свінделлз, Еймі Лу Вуд, Алістер Петрі, Кедар Вілльямс-Стерлінґ, Мікаель Персбрандт, Патриша Аллісон

Сюжет:
Однокласниця підбиває закомплексованого підлітка, мама якого працює секс-терапевтом, організувати підпільні консультації на тему сексу у школі.


Озвучено ТО "Цікава Ідея" за підтримки сайту UASERIALS.PRO

Переклад Олеся Грушка


Тривалість: 1 серія: ~ 50 хв (цілком серій: 8)
Перелік серій:

01. Episode #1
02. Episode #2
03. Episode #3
04. Episode #4
05. Episode #5
06. Episode #6
07. Episode #7
08. Episode #8
Якість:
Відео:
кодек:
розмір кадру: 704 x 352
бітрейт: ~ 1900 кб/с

Аудіо # 1:
мова: українська | "Цікава Ідея"
переклад: професійний багатоголосий закадровий
кодек: 5.1
бітрейт: 448 кб/с

Аудіо # 2:
мова: англійська
переклад: оригінал
кодек: 5.1
бітрейт: 448 кб/с
Info
Код:
Format                      : AVI
Format/Info                 : Audio Video Interleave
Format profile              : OpenDML
File size                   : 1.02 GiB
Duration                    : 51 min 42 s
Overall bit rate            : 2 820 kb/s
Movie name                  : Сексуальне виховання / Sex Education - S01E01 (2019) 1080p [Ukr.Eng] [Цікава Ідея]
Writing application         : Lavf58.20.100

Video
ID                          : 0
Format                      : MPEG-4 Visual
Format profile              : Advanced [email protected]
Format settings             : BVOP1
Format settings, BVOP       : 1
Format settings, QPel       : No
Format settings, GMC        : No warppoints
Format settings, Matrix     : Default (H.263)
Codec ID                    :
Codec ID/Hint               :
Duration                    : 51 min 42 s
Bit rate                    : 1 902 kb/s
Width                       : 704 pixels
Height                      : 352 pixels
Display aspect ratio        : 2.000
Frame rate                  : 25.000 FPS
Color space                 : YUV
Chroma subsampling          : 4:2:0
Bit depth                   : 8 bits
Scan type                   : Progressive
Compression mode            : Lossy
Bits/(Pixel*Frame)          : 0.307
Stream size                 : 703 MiB (67%)
Writing library             : 67

Audio #1
ID                          : 1
Format                      : AC-3
Format/Info                 : Audio Coding 3
Commercial name             : Dolby Digital
Codec ID                    : 2000
Duration                    : 51 min 42 s
Bit rate mode               : Constant
Bit rate                    : 448 kb/s
Channel(s)                  : 6 channels
Channel layout              : L R C LFE Ls Rs
Sampling rate               : 48.0 kHz
Frame rate                  : 31.250 FPS (1536 SPF)
Bit depth                   : 16 bits
Compression mode            : Lossy
Stream size                 : 166 MiB (16%)
Alignment                   : Aligned on interleaves
Interleave, duration        : 32  ms (0.80 video frame)
Title                       : Українська
Service kind                : Complete Main

Audio #2
ID                          : 2
Format                      : AC-3
Format/Info                 : Audio Coding 3
Commercial name             : Dolby Digital
Codec ID                    : 2000
Duration                    : 51 min 42 s
Bit rate mode               : Constant
Bit rate                    : 448 kb/s
Channel(s)                  : 6 channels
Channel layout              : L R C LFE Ls Rs
Sampling rate               : 48.0 kHz
Frame rate                  : 31.250 FPS (1536 SPF)
Bit depth                   : 16 bits
Compression mode            : Lossy
Stream size                 : 166 MiB (16%)
Alignment                   : Aligned on interleaves
Interleave, duration        : 32  ms (0.80 video frame)
Service kind                : Complete Main
Скріншоти



Озвучено творчим об'єднанням:
Ролі озвучили: Семен Птаха, Юлія Малахова, Матвій Ніколаєв, Анна Пелех, Олексій Сафін, Ольга Мотрич, Олександр Чернов та Андрій Корзаченко
Подяка за ріпи в avi: antik_2008


Авторський реліз (завантажувати можна без реєстрації)
 Трекер:    Зареєстрований   

Завантажити / скачати серіал українською



відео для новачків



 Зареєстрований:   2020-06-04 16:14
 Розмір:   8.09 GB 
 Оцінка серіалу:   9.8/10 (Голосів: 10)
   
Ваш часовий пояс: GMT + 2 Години

Нова тема   Відповісти