Леді та Блудько (Леді та Бродяга). Дилогія / Lady and the Tramp. Dilogy (1955-2001) 1080p H.265 2xUkr/Eng | Sub Eng

Нові коментарі

Нова тема   Відповісти
Автор Повідомлення
Anonymous 







2020-06-04 12:41  
Леді та Блудько (Леді та Бродяга). Дилогія / Lady and the Tramp. Dilogy (1955-2001) 1080p H.265 2xUkr/Eng | Sub Eng

Леді та Блудько (Леді та Бродяга). Дилогія / Lady and the Tramp. Dilogy (1955-2001) 1080p H.265 2xUkr/Eng | Sub Eng

1. 2.

1. Леді та Волоцюга / Lady and the Tramp (1955) 1080p H.265 4xUkr/Eng | Sub Ukr/Eng
Леді та Волоцюга / Lady and the Tramp (1955) 1080p H.265 4xUkr/Eng | Sub Ukr/Eng

Леді та Блудько (Леді та Бродяга). Дилогія / Lady and the Tramp. Dilogy (1955-2001) 1080p H.265 2xUkr/Eng | Sub Eng


Жанр: мультфільм, сімейний, комедія, музичний
Країна: США
Кінокомпанія: Walt Disney Pictures
Режисер: Клайд Джеронімі / Clyde Geronimi, Вілфред Джексон / Wilfred Jackson, Гамільтон Луск / Hamilton Luske
Актори: Пеґґі Лі / Peggy Lee, Барбара Ладді / Barbara Luddy, Ларрі Робертс / Larry Roberts, Білл Томпсон / Bill Thompson, Верна Фелтон / Verna Felton та інші.

Сюжет:
Романтична історія про двох зовсім різних собак - безтурботної хатньої улюблениці та звичайного дворового пса, чия зустріч поклала початок цілій низці пригод.

Зворушлива і захоплююча історія зближення двох абсолютно різних собак - розпещеної породистої кімнатної собаки і бездомного дворняги. Витончена і пухнаста як іграшка, кокер-спаніельша Леді була улюбленицею господарів, доки в їх сім'ї не з'явилось немовля. Надітий намордник став останньою краплею, що підштовхнула скривджену героїню до втечі. Але на вулиці її чекала ціла купа небезпек, про існування яких вона навіть не підозрювала. І тоді на допомогу мініатюрній чорноокій красуні прийшов розбитний пес Блудько (Бродяга), благородство якого було не в породі, а в душі. Блудько (Бродяга) виявив чуйність і мужність і врешті-решт завоював серце ніжної Леді.

Тривалість: 01:16:23
Якість:

Відео:
кодек: H.265 (HEVC)
розмір кадру: 1920 x 750
бітрейт: 5 316 кб/с
бітова глибина: 10 біт

Увага! Перед завантаженням переконайтесь, що ваш пристрій відтворення (та/або ПЗ) підтримує H.265 (HEVC)

Аудіо # 1:
мова: українська
переклад: багатоголосий закадровий │ студія Омікрон
кодек: 5.1
бітрейт: 1510 кб/с

Аудіо # 2:
мова: українська
переклад: професійний дубльований
кодек: AC-3 2.0
бітрейт: 192 кб/с

Аудіо # 3:
мова: українська
переклад: багатоголосий закадровий │ ТО "Діатрема"
кодек: AC-3 2.0
бітрейт: 192 кб/с

Аудіо # 4:
мова: українська
переклад: двоголосий закадровий
кодек: AC-3 5.1
бітрейт: 448 кб/с

Аудіо # 5:
мова: англійська
переклад: оригінал
кодек: 5.1
бітрейт: 1510 кб/с

Аудіо # 6:
мова: англійська
переклад: оригінал | коментарі
кодек: AC-3 2.0
бітрейт: 192 кб/с

Субтитри # 1-3: (Full, Commentary v1, Commentary v2)
мова: українська
тип: програмні (м'які)
формат: *.srt

Субтитри # 4-5: (Full, SDH)
мова: англійська
тип: програмні (м'які)
формат: *.srt


Info
Код:
General
Unique ID                                : 84485745713456206378625808609042287733 (0x3F8F5CDD77F80974D84326EABDC0CC75)
Complete name                            : 1. Lady and the Tramp (1955) 1080p H.265 [4xUKR_ENG] [Hurtom].
Format                                   :
Format version                           : Version 4
File size                                : 4.99 GiB
Duration                                 : 1 h 16 min
Overall bit rate                         : 9 356 kb/s
Movie name                               : Леді та Блудько / Леді та бродяга / Lady and the Tramp (1955)
Encoded date                             : UTC 2020-06-03 23:02:41
Writing application                      : v20.0.0 ('I Am The Sun') 64-bit
Writing library                          : libebml v1.3.5 + v1.4.8
Cover                                    : Yes
Attachments                              : cover.jpg

Video
ID                                       : 1
Format                                   : HEVC
Format/Info                              : High Efficiency Video Coding
Format profile                           : Main [email protected]@High
Codec ID                                 : V_MPEGH/ISO/HEVC
Duration                                 : 1 h 16 min
Bit rate                                 : 5 316 kb/s
Width                                    : 1 920 pixels
Height                                   : 750 pixels
Display aspect ratio                     : 2.560
Frame rate mode                          : Constant
Frame rate                               : 23.976 (23976/1000) FPS
Original frame rate                      : 23.976 (24000/1001) FPS
Color space                              : YUV
Chroma subsampling                       : 4:2:0
Bit depth                                : 10 bits
Bits/(Pixel*Frame)                       : 0.154
Stream size                              : 2.84 GiB (57%)
Title                                    : Леді та Блудько / Леді та бродяга / Lady and the Tramp (1955)
Writing library                          : x265 3.3+1-g554c887ac:[Windows][MSVC 1924][64 bit] 10bit
Encoding settings                        : cpuid=1111039 / frame-threads=3 / numa-pools=12 / wpp / no-pmode / no-pme / no-psnr / no-ssim / log-level=2 / input-csp=1 / input-res=1920x750 / interlace=0 / total-frames=109897 / level-idc=41 / high-tier=1 / uhd-bd=0 / ref=5 / no-allow-non-conformance / no-repeat-headers / annexb / no-aud / no-hrd / info / hash=0 / no-temporal-layers / open-gop / min-keyint=23 / keyint=240 / gop-lookahead=0 / bframes=10 / b-adapt=2 / b-pyramid / bframe-bias=0 / rc-lookahead=60 / lookahead-slices=4 / scenecut=40 / hist-scenecut=0 / radl=0 / no-splice / no-intra-refresh / ctu=32 / min-cu-size=8 / rect / amp / max-tu-size=32 / tu-inter-depth=4 / tu-intra-depth=4 / limit-tu=1 / rdoq-level=2 / dynamic-rd=0.00 / no-ssim-rd / signhide / no-tskip / nr-intra=0 / nr-inter=0 / no-constrained-intra / no-strong-intra-smoothing / max-merge=4 / limit-refs=2 / limit-modes / me=3 / subme=7 / merange=57 / temporal-mvp / no-frame-dup / no-hme / weightp / weightb / no-analyze-src-pics / deblock=-3:-3 / no-sao / no-sao-non-deblock / rd=6 / selective-sao=0 / no-early-skip / no-rskip / no-fast-intra / no-tskip-fast / no-cu-lossless / no-b-intra / no-splitrd-skip / rdpenalty=0 / psy-rd=2.00 / psy-rdoq=1.00 / no-rd-refine / no-lossless / cbqpoffs=0 / crqpoffs=0 / rc=crf / crf=19.0 / qcomp=0.60 / qpstep=4 / stats-write=0 / stats-read=0 / vbv-maxrate=50000 / vbv-bufsize=50000 / vbv-init=0.9 / crf-max=0.0 / crf-min=0.0 / ipratio=1.40 / pbratio=1.30 / aq-mode=1 / aq-strength=1.00 / no-cutree / zone-count=0 / no-strict-cbr / qg-size=32 / no-rc-grain / qpmax=69 / qpmin=0 / no-const-vbv / sar=1 / overscan=0 / videoformat=5 / range=0 / colorprim=1 / transfer=1 / colormatrix=1 / chromaloc=0 / display-window=0 / cll=0,0 / min-luma=0 / max-luma=1023 / log2-max-poc-lsb=8 / vui-timing-info / vui-hrd-info / slices=1 / no-opt-qp-pps / no-opt-ref-list-length-pps / no-multi-pass-opt-rps / scenecut-bias=0.05 / hist-threshold=0.01 / no-opt-cu-delta-qp / no-aq-motion / no-hdr10 / no-hdr10-opt / no-dhdr10-opt / no-idr-recovery-sei / analysis-reuse-level=0 / analysis-save-reuse-level=0 / analysis-load-reuse-level=0 / scale-factor=0 / refine-intra=0 / refine-inter=0 / refine-mv=1 / refine-ctu-distortion=0 / no-limit-sao / ctu-info=0 / no-lowpass-dct / refine-analysis-type=0 / copy-pic=1 / max-ausize-factor=1.0 / no-dynamic-refine / no-single-sei / no-hevc-aq / no-svt / no-field / qp-adaptation-range=1.00 / no-scenecut-aware-qpconformance-window-offsets / right=0 / bottom=0
Default                                  : Yes
Forced                                   : No
Color range                              : Limited
Color primaries                          : BT.709
Transfer characteristics                 : BT.709
Matrix coefficients                      : BT.709

Audio #1
ID                                       : 2
Format                                   : ES
Format/Info                              : Digital Theater Systems
Commercial name                          : -ES Matrix
Codec ID                                 : A_DTS
Duration                                 : 1 h 16 min
Bit rate mode                            : Constant
Bit rate                                 : 1 509 kb/s
Channel(s)                               : 6 channels
Channel(s)_Original                      : 7 channels
ChannelLayout_Original                   : C L R Ls Rs Cs LFE
Sampling rate                            : 48.0 kHz
Frame rate                               : 93.750 FPS (512 SPF)
Bit depth                                : 24 bits
Compression mode                         : Lossy
Stream size                              : 825 MiB (16%)
Title                                    : -ES / 5.1 Ch / 1509 kbps / БЗ / Omikron
Language                                 : Ukrainian
Default                                  : Yes
Forced                                   : Yes

Audio #2
ID                                       : 3
Format                                   : AC-3
Format/Info                              : Audio Coding 3
Commercial name                          : Dolby Digital
Codec ID                                 : A_AC3
Duration                                 : 1 h 16 min
Bit rate mode                            : Constant
Bit rate                                 : 192 kb/s
Channel(s)                               : 2 channels
Channel layout                           : L R
Sampling rate                            : 48.0 kHz
Frame rate                               : 31.250 FPS (1536 SPF)
Compression mode                         : Lossy
Stream size                              : 104 MiB (2%)
Title                                    : / 2.0 Ch / 192 kbps / ПД / Megogo
Language                                 : Ukrainian
Service kind                             : Complete Main
Default                                  : No
Forced                                   : Yes

Audio #3
ID                                       : 4
Format                                   : AC-3
Format/Info                              : Audio Coding 3
Commercial name                          : Dolby Digital
Codec ID                                 : A_AC3
Duration                                 : 1 h 16 min
Bit rate mode                            : Constant
Bit rate                                 : 192 kb/s
Channel(s)                               : 2 channels
Channel layout                           : L R
Sampling rate                            : 48.0 kHz
Frame rate                               : 31.250 FPS (1536 SPF)
Compression mode                         : Lossy
Stream size                              : 105 MiB (2%)
Title                                    : / 2.0 Ch / 192 kbps / БЗ / Diatrema
Language                                 : Ukrainian
Service kind                             : Complete Main
Default                                  : No
Forced                                   : No

Audio #4
ID                                       : 5
Format                                   : AC-3
Format/Info                              : Audio Coding 3
Commercial name                          : Dolby Digital
Codec ID                                 : A_AC3
Duration                                 : 1 h 16 min
Bit rate mode                            : Constant
Bit rate                                 : 448 kb/s
Channel(s)                               : 6 channels
Channel layout                           : L R C LFE Ls Rs
Sampling rate                            : 48.0 kHz
Frame rate                               : 31.250 FPS (1536 SPF)
Compression mode                         : Lossy
Stream size                              : 245 MiB (5%)
Title                                    : / 5.1 Ch / 448 kbps / ДЗ / MonsterMix / UkrDub.Net
Language                                 : Ukrainian
Service kind                             : Complete Main
Default                                  : No
Forced                                   : No

Audio #5
ID                                       : 6
Format                                   :
Format/Info                              : Digital Theater Systems
Codec ID                                 : A_DTS
Duration                                 : 1 h 16 min
Bit rate mode                            : Constant
Bit rate                                 : 1 509 kb/s
Channel(s)                               : 6 channels
Channel layout                           : C L R Ls Rs LFE
Sampling rate                            : 48.0 kHz
Frame rate                               : 93.750 FPS (512 SPF)
Bit depth                                : 24 bits
Compression mode                         : Lossy
Delay relative to video                  : 11 ms
Stream size                              : 820 MiB (16%)
Title                                    : / 5.1 Ch / 1509 kbps / Original
Language                                 : English
Default                                  : No
Forced                                   : No

Audio #6
ID                                       : 7
Format                                   : AC-3
Format/Info                              : Audio Coding 3
Commercial name                          : Dolby Digital
Codec ID                                 : A_AC3
Duration                                 : 1 h 16 min
Bit rate mode                            : Constant
Bit rate                                 : 192 kb/s
Channel(s)                               : 2 channels
Channel layout                           : L R
Sampling rate                            : 48.0 kHz
Frame rate                               : 31.250 FPS (1536 SPF)
Compression mode                         : Lossy
Stream size                              : 105 MiB (2%)
Title                                    : / 2.0 Ch / 192 kbps / Original / Commentary
Language                                 : English
Service kind                             : Complete Main
Default                                  : No
Forced                                   : No

Text #1
ID                                       : 8
Format                                   : UTF-8
Codec ID                                 : S_TEXT/UTF8
Codec ID/Info                            : UTF-8 Plain Text
Duration                                 : 1 h 15 min
Bit rate                                 : 74 b/s
Count of elements                        : 1034
Stream size                              : 41.1 KiB (0%)
Title                                    : Full
Language                                 : Ukrainian
Default                                  : Yes
Forced                                   : No

Text #2
ID                                       : 9
Format                                   : UTF-8
Codec ID                                 : S_TEXT/UTF8
Codec ID/Info                            : UTF-8 Plain Text
Duration                                 : 1 h 15 min
Bit rate                                 : 136 b/s
Count of elements                        : 1383
Stream size                              : 75.5 KiB (0%)
Title                                    : Commentary v1
Language                                 : Ukrainian
Default                                  : No
Forced                                   : No

Text #3
ID                                       : 10
Format                                   : UTF-8
Codec ID                                 : S_TEXT/UTF8
Codec ID/Info                            : UTF-8 Plain Text
Duration                                 : 1 h 15 min
Bit rate                                 : 138 b/s
Count of elements                        : 1431
Stream size                              : 76.7 KiB (0%)
Title                                    : Commentary v2
Language                                 : Ukrainian
Default                                  : No
Forced                                   : No

Text #4
ID                                       : 11
Format                                   : UTF-8
Codec ID                                 : S_TEXT/UTF8
Codec ID/Info                            : UTF-8 Plain Text
Duration                                 : 1 h 15 min
Bit rate                                 : 49 b/s
Count of elements                        : 991
Stream size                              : 27.4 KiB (0%)
Title                                    : Full
Language                                 : English
Default                                  : No
Forced                                   : No

Text #5
ID                                       : 12
Format                                   : UTF-8
Codec ID                                 : S_TEXT/UTF8
Codec ID/Info                            : UTF-8 Plain Text
Duration                                 : 1 h 15 min
Bit rate                                 : 60 b/s
Count of elements                        : 1164
Stream size                              : 33.6 KiB (0%)
Title                                    : SDH
Language                                 : English
Default                                  : No
Forced                                   : No

Menu
00:00:00.000                             : en:Opening Credits / Pease On Earth
00:03:36.257                             : en:Setting Down For The Night
00:09:56.429                             : en:Lady Gets A Collar
00:14:42.798                             : en:The Other Side Of The Tracks
00:18:44.998                             : en:A Sad Day For Lady
00:23:03.799                             : en:Tramp's Point Of View
00:27:33.234                             : en:Lady Wonders, "What Is A Baby?"
00:29:08.663                             : en:"La La Lu"
00:32:45.046                             : en:Strange Visitors ("The Siamese Cat Song")
00:35:52.733                             : en:Lady Runs Off
00:40:20.543                             : en:An Eager Beaver Saves The Day
00:43:27.479                             : en:Tramp Takes Lady Around Town
00:46:48.972                             : en:Spaghetti For Two ("Bella Notte")
00:49:42.479                             : en:The Next Morning
00:53:40.717                             : en:The Dog Pound
00:55:33.079                             : en:Lady In The Pound
00:58:24.000                             : en:"He's A Tramp"
01:00:52.982                             : en:Lady's Shame
01:04:43.629                             : en:A Rat In The House
01:05:40.645                             : en:Tramp To The Rescue
01:09:56.567                             : en:Trusty On The Trail
01:12:41.065                             : en:Domestic Life
Світлини



2. Леді та Волоцюга 2: Пригоди Пустуна / Lady and the Tramp II: Scamp's Adventure (2001) 1080p H.265 2xUkr/Eng | Sub Eng
Леді та Волоцюга 2: Пригоди Пустуна / Lady and the Tramp II: Scamp's Adventure (2001) 1080p H.265 2xUkr/Eng | Sub Eng

Леді та Блудько (Леді та Бродяга). Дилогія / Lady and the Tramp. Dilogy (1955-2001) 1080p H.265 2xUkr/Eng | Sub Eng


Жанр: анімація, мелодрама, сімейний, пригодницький
Країна: США, Австралія
Кінокомпанія: Walt Disney Pictures, Walt Disney Television Animation, Walt Disney Animation Australia
Режисер: Даррел Руні / Darrell Rooney, Джаннін Расел / Jeannine Roussel
Ролі озвучують: Скотт Вулф / Scott Wolf, Алісса Мілано / Alyssa Milano, Чазз Пальмінтері / Chazz Palminteri, Джефф Беннетт / Jeff Bennett, Джоді Бенсон / Jodi Benson, Білл Фагербаккі / Bill Fagerbakke, Мікі Руні / Mickey Rooney, Бронсон Пінчот / Bronson Pinchot, Кеті Моріарті / Cathy Moriarty, Мері Кей Бергман / Mary Kay Bergman та інші

Сюжет:
Продовження класичного диснеївського мультфільму про зворушливі стосунки породистої Лессі та безпритульного собаки. Вони вже батьки цілої зграї цуценят - трьох працьовитих дівчаток і одного бешкетника цуценяти-хлопчика на прізвисько Пустун.

В пошуках ризику і "реального" собачого життя Пустун тікає з дому і зустрічає Янгола, Бастера та його ватагу. Разом з вірними друзями він переживе багато комічних ситуацій, а також зіткнеться з небезпеками, які цілком можуть підстерігати цуцика на вулицях великого міста. Хоч Пустун і знайшов ризик, проте його думки всеодно повертають до дому та родини.

Тривалість: 01:09:02
Якість:

Відео:
кодек: H.265 (HEVC)
розмір кадру: 1920 x 1080
бітрейт: 4 786 кб/с
бітова глибина: 10 біт

Увага! Перед завантаженням переконайтесь, що ваш пристрій відтворення (та/або ПЗ) підтримує H.265 (HEVC)

Аудіо # 1:
мова: українська
переклад: професійний дубльований | Студія LeDoyen
кодек: AC-3 2.0
бітрейт: 192 кб/с

Аудіо # 2:
мова: українська
переклад: багатоголосий закадровий | ТО "Діатрема"
кодек: AC-3 2.0
бітрейт: 192 кб/с

Аудіо # 3:
мова: англійська
переклад: оригінал
кодек: 5.1
бітрейт: 1510 кб/с

Субтитри # 1-2: (Full, SHD)
мова: англійська
тип: програмні (м'які)
формат: *.srt


Info
Код:
General
Unique ID                                : 237284554191444902897146128180026287555 (0xB28357C36E4B7C380ACAD0E4F74825C3)
Complete name                            : 2. Lady and the Tramp II. Scamp's Adventure (2001) 1080p H.265 [2xUKR_ENG] [Hurtom].
Format                                   :
Format version                           : Version 4
File size                                : 3.22 GiB
Duration                                 : 1 h 9 min
Overall bit rate                         : 6 683 kb/s
Movie name                               : Леді та Волоцюга II: Пригоди Пустуна / Lady and the Tramp II Scamp's Adventure (2001)
Encoded date                             : UTC 2020-06-03 23:07:52
Writing application                      : v20.0.0 ('I Am The Sun') 64-bit
Writing library                          : libebml v1.3.5 + v1.4.8
Cover                                    : Yes
Attachments                              : Cover.jpg

Video
ID                                       : 1
Format                                   : HEVC
Format/Info                              : High Efficiency Video Coding
Format profile                           : Main [email protected]@High
Codec ID                                 : V_MPEGH/ISO/HEVC
Duration                                 : 1 h 9 min
Bit rate                                 : 4 786 kb/s
Width                                    : 1 920 pixels
Height                                   : 1 080 pixels
Display aspect ratio                     : 16:9
Frame rate mode                          : Constant
Frame rate                               : 23.976 (23976/1000) FPS
Original frame rate                      : 23.976 (24000/1001) FPS
Color space                              : YUV
Chroma subsampling                       : 4:2:0
Bit depth                                : 10 bits
Bits/(Pixel*Frame)                       : 0.096
Stream size                              : 2.31 GiB (72%)
Title                                    : Леді та Волоцюга II: Пригоди Пустуна / Lady and the Tramp II Scamp's Adventure (2001)
Writing library                          : x265 3.3+1-g554c887ac:[Windows][MSVC 1924][64 bit] 10bit
Encoding settings                        : cpuid=1111039 / frame-threads=3 / numa-pools=12 / wpp / no-pmode / no-pme / no-psnr / no-ssim / log-level=2 / input-csp=1 / input-res=1920x1080 / interlace=0 / total-frames=99312 / level-idc=41 / high-tier=1 / uhd-bd=0 / ref=5 / no-allow-non-conformance / no-repeat-headers / annexb / no-aud / no-hrd / info / hash=0 / no-temporal-layers / open-gop / min-keyint=23 / keyint=240 / gop-lookahead=0 / bframes=10 / b-adapt=2 / b-pyramid / bframe-bias=0 / rc-lookahead=60 / lookahead-slices=4 / scenecut=40 / hist-scenecut=0 / radl=0 / no-splice / no-intra-refresh / ctu=32 / min-cu-size=8 / rect / amp / max-tu-size=32 / tu-inter-depth=4 / tu-intra-depth=4 / limit-tu=1 / rdoq-level=2 / dynamic-rd=0.00 / no-ssim-rd / signhide / no-tskip / nr-intra=0 / nr-inter=0 / no-constrained-intra / no-strong-intra-smoothing / max-merge=4 / limit-refs=2 / limit-modes / me=3 / subme=7 / merange=57 / temporal-mvp / no-frame-dup / no-hme / weightp / weightb / no-analyze-src-pics / deblock=-3:-3 / no-sao / no-sao-non-deblock / rd=6 / selective-sao=0 / no-early-skip / no-rskip / no-fast-intra / no-tskip-fast / no-cu-lossless / no-b-intra / no-splitrd-skip / rdpenalty=0 / psy-rd=2.00 / psy-rdoq=1.00 / no-rd-refine / no-lossless / cbqpoffs=0 / crqpoffs=0 / rc=crf / crf=19.0 / qcomp=0.60 / qpstep=4 / stats-write=0 / stats-read=0 / vbv-maxrate=50000 / vbv-bufsize=50000 / vbv-init=0.9 / crf-max=0.0 / crf-min=0.0 / ipratio=1.40 / pbratio=1.30 / aq-mode=1 / aq-strength=1.00 / no-cutree / zone-count=0 / no-strict-cbr / qg-size=32 / no-rc-grain / qpmax=69 / qpmin=0 / no-const-vbv / sar=1 / overscan=0 / videoformat=5 / range=0 / colorprim=1 / transfer=1 / colormatrix=1 / chromaloc=0 / display-window=0 / cll=0,0 / min-luma=0 / max-luma=1023 / log2-max-poc-lsb=8 / vui-timing-info / vui-hrd-info / slices=1 / no-opt-qp-pps / no-opt-ref-list-length-pps / no-multi-pass-opt-rps / scenecut-bias=0.05 / hist-threshold=0.01 / no-opt-cu-delta-qp / no-aq-motion / no-hdr10 / no-hdr10-opt / no-dhdr10-opt / no-idr-recovery-sei / analysis-reuse-level=0 / analysis-save-reuse-level=0 / analysis-load-reuse-level=0 / scale-factor=0 / refine-intra=0 / refine-inter=0 / refine-mv=1 / refine-ctu-distortion=0 / no-limit-sao / ctu-info=0 / no-lowpass-dct / refine-analysis-type=0 / copy-pic=1 / max-ausize-factor=1.0 / no-dynamic-refine / no-single-sei / no-hevc-aq / no-svt / no-field / qp-adaptation-range=1.00 / no-scenecut-aware-qpconformance-window-offsets / right=0 / bottom=0
Default                                  : Yes
Forced                                   : No
Color range                              : Limited
Color primaries                          : BT.709
Transfer characteristics                 : BT.709
Matrix coefficients                      : BT.709

Audio #1
ID                                       : 2
Format                                   : AC-3
Format/Info                              : Audio Coding 3
Commercial name                          : Dolby Digital
Codec ID                                 : A_AC3
Duration                                 : 1 h 9 min
Bit rate mode                            : Constant
Bit rate                                 : 192 kb/s
Channel(s)                               : 2 channels
Channel layout                           : L R
Sampling rate                            : 48.0 kHz
Frame rate                               : 31.250 FPS (1536 SPF)
Compression mode                         : Lossy
Stream size                              : 94.8 MiB (3%)
Title                                    : / 2.0 Ch / 192 kbps / ПД / Студія LeDoyen
Language                                 : Ukrainian
Service kind                             : Complete Main
Default                                  : Yes
Forced                                   : Yes

Audio #2
ID                                       : 3
Format                                   : AC-3
Format/Info                              : Audio Coding 3
Commercial name                          : Dolby Digital
Codec ID                                 : A_AC3
Duration                                 : 1 h 9 min
Bit rate mode                            : Constant
Bit rate                                 : 192 kb/s
Channel(s)                               : 2 channels
Channel layout                           : L R
Sampling rate                            : 48.0 kHz
Frame rate                               : 31.250 FPS (1536 SPF)
Compression mode                         : Lossy
Stream size                              : 94.8 MiB (3%)
Title                                    : / 2.0 Ch / 192 kbps / БЗ / Diatrema
Language                                 : Ukrainian
Service kind                             : Complete Main
Default                                  : No
Forced                                   : No

Audio #3
ID                                       : 4
Format                                   :
Format/Info                              : Digital Theater Systems
Codec ID                                 : A_DTS
Duration                                 : 1 h 9 min
Bit rate mode                            : Constant
Bit rate                                 : 1 509 kb/s
Channel(s)                               : 6 channels
Channel layout                           : C L R Ls Rs LFE
Sampling rate                            : 48.0 kHz
Frame rate                               : 93.750 FPS (512 SPF)
Bit depth                                : 24 bits
Compression mode                         : Lossy
Stream size                              : 745 MiB (23%)
Title                                    : / 5.1 Ch / 1509 kbps / Original
Language                                 : English
Default                                  : No
Forced                                   : No

Text #1
ID                                       : 5
Format                                   : UTF-8
Codec ID                                 : S_TEXT/UTF8
Codec ID/Info                            : UTF-8 Plain Text
Duration                                 : 1 h 2 min
Bit rate                                 : 71 b/s
Count of elements                        : 881
Stream size                              : 32.8 KiB (0%)
Title                                    : Full
Language                                 : English
Default                                  : No
Forced                                   : No

Text #2
ID                                       : 6
Format                                   : UTF-8
Codec ID                                 : S_TEXT/UTF8
Codec ID/Info                            : UTF-8 Plain Text
Duration                                 : 1 h 5 min
Bit rate                                 : 70 b/s
Count of elements                        : 1258
Stream size                              : 34.0 KiB (0%)
Title                                    : SHD
Language                                 : English
Default                                  : No
Forced                                   : No

Menu
00:00:00.000                             : en:Opening Titles
00:03:13.985                             : en:Bath Time
00:06:15.124                             : en:Rules! Rules! Rules!
00:09:19.058                             : en:Scamp Meets Angel
00:11:32.191                             : en:"A World Without Fences"
00:13:59.797                             : en:Street Dog
00:16:19.186                             : en:Buster
00:19:39.178                             : en:"Junkyard Society Rag"
00:24:14.703                             : en:Scamp Runs Away
00:25:54.511                             : en:Reggie's Alley
00:29:58.171                             : en:The Tramp
00:33:03.356                             : en:Run!
00:35:51.607                             : en:Searching For Scamp
00:37:07.475                             : en:"I Didn't Know That I Could Feel This Way"
00:40:23.212                             : en:Missing Scamp
00:43:20.514                             : en:Independence Day Picnic
00:46:44.927                             : en:Scamp's Choice
00:49:30.217                             : en:Junkyard Dog
00:51:25.624                             : en:Looking For Angel
00:53:13.148                             : en:"Always There"
00:56:03.193                             : en:The Pound
00:58:49.692                             : en:Going Home
01:01:17.840                             : en:Welcome To The Family
01:03:08.326                             : en:End Credits
Світлини




Джерело: &
Особиста оцінка: 10 - без зайвих вагань рекомендую всім!


Срібний реліз (на рейтинг впливає 50% завантаженого)
 Трекер:    Зареєстрований   

Завантажити / скачати мультфільм українською



відео для новачків



 Зареєстрований:   2020-06-04 12:41
 Розмір:   8.21 GB 
 Оцінка мультфільму:   8.7/10 (Голосів: 7)
   
tilda4334 
Відео Гуртом - фільмокрай
Відео Гуртом - фільмокрай


З нами з: 15.08.14
Востаннє: 26.02.21
Повідомлень: 1417

2020-06-04 12:53  
При наявності професійного дубляжу ставити першою доріжкою багатоголоску, мдя...
Ваш часовий пояс: GMT + 2 Години

Нова тема   Відповісти