Відважна / Brave (2012) 1080p H.265 Ukr/Eng | Sub Ukr/Eng

Нові коментарі

Нова тема   Відповісти
Автор Повідомлення
Anonymous 







2020-06-04 00:20  
Відважна / Brave (2012) 1080p H.265 Ukr/Eng | Sub Ukr/Eng

Відважна / Brave (2012) 1080p H.265 Ukr/Eng | Sub Ukr/Eng


Жанр: анімація, пригодницький, комедія
Країна: США
Кінокомпанія: Walt Disney Pictures, Pixar Animation Studio
Режисер: Марк Ендрюс, Бренда Чемпан
Актори: Келлі МакДональд, Біллі Конноллі, Емма Томпсон, Джулі Волтерс, Робі Колтрейн, Кевін МакКід, Крейг ФергюсонКеллі МакДональд, Біллі Конноллі, Емма Томпсон, Джулі Волтерс, Робі Колтрейн, Кевін МакКід, Крейг Фергюсон

Сюжет:
Споконвіку міфи і легенди огортають загадковою пеленою мальовничі Шотландські межигір'я. Майстерній лучниці Меріді доводиться вибирати свій шлях у житті самостійно, і одного разу вона відмовляється слідувати стародавнім традиціям королівства, кидаючи виклик могутнім шотландським кланам і їх ватажкам: нескладному лорду МакГаффіну, похмурому лорду Макінтош і сварливому лорду Дінгволлу. Необережні вчинки Меріди загрожують повалити королівство у хаос, і тоді вона відправляється за порадою до ексцентричної самітниці, яка замість допомоги накладає на Меріду небезпечне закляття. Юній принцесі належить покладатися тільки на власну хоробрість, щоб подолати могутнє чаклунство і перемогти самого страшного звіра з тих, що водяться в гірських долинах.

Тривалість: 01:34:12
Якість: (Російський відеоряд)

Відео:
кодек: H.265 (HEVC)
розмір кадру: 1920 x 804
бітрейт: 4 792 кб/с
бітова глибина: 10 біт

Увага! Перед завантаженням переконайтесь, що ваш пристрій відтворення (та/або ПЗ) підтримує H.265 (HEVC)

Аудіо # 1:
мова: українська
переклад: професійний дубльований
кодек: AC-3 5.1
бітрейт: 448 кб/с

Аудіо # 2:
мова: англійська
переклад: оригінал
кодек: 5.1
бітрейт: 1510 кб/с

Аудіо # 3:
мова: англійська
переклад: оригінал | Commentary with Director Mark Andrews, co-director Steve Purcell, story supervisor Brian Larsen and editor Nick Smith
кодек: AC-3 2.0
бітрейт: 320 кб/с

Субтитри # 1-3: (Forced, Full, Commentary)
мова: українська
тип: програмні (м'які)
формат: *.srt

Субтитри # 4-6: (Full, SDH, Commentary)
мова: англійська
тип: програмні (м'які)
формат: *.srt


Info
Код:
General
Unique ID                                : 9777053791672135705700485307348802759 (0x75AFDF81267425091BBBE2613ABDCC7)
Complete name                            : Brave (2012) 1080p H.265 [UKR_ENG] [Hurtom].
Format                                   :
Format version                           : Version 4
File size                                : 4.65 GiB
Duration                                 : 1 h 34 min
Overall bit rate                         : 7 069 kb/s
Movie name                               : Відважна / Brave (2012)
Encoded date                             : UTC 2020-06-03 21:26:27
Writing application                      : v20.0.0 ('I Am The Sun') 64-bit
Writing library                          : libebml v1.3.5 + v1.4.8
Cover                                    : Yes
Attachments                              : Cover.jpg

Video
ID                                       : 1
Format                                   : HEVC
Format/Info                              : High Efficiency Video Coding
Format profile                           : Main [email protected]@High
Codec ID                                 : V_MPEGH/ISO/HEVC
Duration                                 : 1 h 34 min
Bit rate                                 : 4 792 kb/s
Width                                    : 1 920 pixels
Height                                   : 804 pixels
Display aspect ratio                     : 2.40:1
Frame rate mode                          : Constant
Frame rate                               : 23.976 (24000/1001) FPS
Color space                              : YUV
Chroma subsampling                       : 4:2:0
Bit depth                                : 10 bits
Bits/(Pixel*Frame)                       : 0.129
Stream size                              : 3.15 GiB (68%)
Title                                    : Відважна / Brave (2012)
Writing library                          : x265 3.3+1-g554c887ac:[Windows][MSVC 1924][64 bit] 10bit
Encoding settings                        : cpuid=1111039 / frame-threads=3 / numa-pools=12 / wpp / no-pmode / no-pme / no-psnr / no-ssim / log-level=2 / input-csp=1 / input-res=1920x804 / interlace=0 / total-frames=135517 / level-idc=41 / high-tier=1 / uhd-bd=0 / ref=5 / no-allow-non-conformance / no-repeat-headers / annexb / no-aud / no-hrd / info / hash=0 / no-temporal-layers / open-gop / min-keyint=23 / keyint=240 / gop-lookahead=0 / bframes=10 / b-adapt=2 / b-pyramid / bframe-bias=0 / rc-lookahead=60 / lookahead-slices=4 / scenecut=40 / hist-scenecut=0 / radl=0 / no-splice / no-intra-refresh / ctu=32 / min-cu-size=8 / rect / amp / max-tu-size=32 / tu-inter-depth=4 / tu-intra-depth=4 / limit-tu=1 / rdoq-level=2 / dynamic-rd=0.00 / no-ssim-rd / signhide / no-tskip / nr-intra=0 / nr-inter=0 / no-constrained-intra / no-strong-intra-smoothing / max-merge=4 / limit-refs=2 / limit-modes / me=3 / subme=7 / merange=57 / temporal-mvp / no-frame-dup / no-hme / weightp / weightb / no-analyze-src-pics / deblock=-3:-3 / no-sao / no-sao-non-deblock / rd=6 / selective-sao=0 / no-early-skip / no-rskip / no-fast-intra / no-tskip-fast / no-cu-lossless / no-b-intra / no-splitrd-skip / rdpenalty=0 / psy-rd=2.00 / psy-rdoq=1.00 / no-rd-refine / no-lossless / cbqpoffs=0 / crqpoffs=0 / rc=crf / crf=19.0 / qcomp=0.60 / qpstep=4 / stats-write=0 / stats-read=0 / vbv-maxrate=50000 / vbv-bufsize=50000 / vbv-init=0.9 / crf-max=0.0 / crf-min=0.0 / ipratio=1.40 / pbratio=1.30 / aq-mode=1 / aq-strength=1.00 / no-cutree / zone-count=0 / no-strict-cbr / qg-size=32 / no-rc-grain / qpmax=69 / qpmin=0 / no-const-vbv / sar=1 / overscan=0 / videoformat=5 / range=0 / colorprim=1 / transfer=1 / colormatrix=1 / chromaloc=0 / display-window=0 / cll=0,0 / min-luma=0 / max-luma=1023 / log2-max-poc-lsb=8 / vui-timing-info / vui-hrd-info / slices=1 / no-opt-qp-pps / no-opt-ref-list-length-pps / no-multi-pass-opt-rps / scenecut-bias=0.05 / hist-threshold=0.01 / no-opt-cu-delta-qp / no-aq-motion / no-hdr10 / no-hdr10-opt / no-dhdr10-opt / no-idr-recovery-sei / analysis-reuse-level=0 / analysis-save-reuse-level=0 / analysis-load-reuse-level=0 / scale-factor=0 / refine-intra=0 / refine-inter=0 / refine-mv=1 / refine-ctu-distortion=0 / no-limit-sao / ctu-info=0 / no-lowpass-dct / refine-analysis-type=0 / copy-pic=1 / max-ausize-factor=1.0 / no-dynamic-refine / no-single-sei / no-hevc-aq / no-svt / no-field / qp-adaptation-range=1.00 / no-scenecut-aware-qpconformance-window-offsets / right=0 / bottom=0
Default                                  : Yes
Forced                                   : No
Color range                              : Limited
Color primaries                          : BT.709
Transfer characteristics                 : BT.709
Matrix coefficients                      : BT.709

Audio #1
ID                                       : 2
Format                                   : AC-3
Format/Info                              : Audio Coding 3
Commercial name                          : Dolby Digital
Codec ID                                 : A_AC3
Duration                                 : 1 h 33 min
Bit rate mode                            : Constant
Bit rate                                 : 448 kb/s
Channel(s)                               : 6 channels
Channel layout                           : L R C LFE Ls Rs
Sampling rate                            : 48.0 kHz
Frame rate                               : 31.250 FPS (1536 SPF)
Compression mode                         : Lossy
Stream size                              : 300 MiB (6%)
Title                                    : / 5.1 Ch / 448 kbps / ПД / Blu-Ray
Language                                 : Ukrainian
Service kind                             : Complete Main
Default                                  : Yes
Forced                                   : Yes

Audio #2
ID                                       : 3
Format                                   :
Format/Info                              : Digital Theater Systems
Codec ID                                 : A_DTS
Duration                                 : 1 h 34 min
Bit rate mode                            : Constant
Bit rate                                 : 1 509 kb/s
Channel(s)                               : 6 channels
Channel layout                           : C L R Ls Rs LFE
Sampling rate                            : 48.0 kHz
Frame rate                               : 93.750 FPS (512 SPF)
Bit depth                                : 16 bits
Compression mode                         : Lossy
Stream size                              : 1 017 MiB (21%)
Title                                    : / 5.1 Ch / 1509 kbps / Original
Language                                 : English
Default                                  : No
Forced                                   : No

Audio #3
ID                                       : 4
Format                                   : AC-3
Format/Info                              : Audio Coding 3
Commercial name                          : Dolby Digital
Codec ID                                 : A_AC3
Duration                                 : 1 h 33 min
Bit rate mode                            : Constant
Bit rate                                 : 320 kb/s
Channel(s)                               : 2 channels
Channel layout                           : L R
Sampling rate                            : 48.0 kHz
Frame rate                               : 31.250 FPS (1536 SPF)
Compression mode                         : Lossy
Stream size                              : 214 MiB (4%)
Title                                    : / 2.0 Ch / 320 kbps / Original / Commentary
Language                                 : English
Service kind                             : Complete Main
Default                                  : No
Forced                                   : No

Text #1
ID                                       : 5
Format                                   : UTF-8
Codec ID                                 : S_TEXT/UTF8
Codec ID/Info                            : UTF-8 Plain Text
Duration                                 : 3 min 33 s
Bit rate                                 : 3 b/s
Count of elements                        : 3
Stream size                              : 94.0 Bytes (0%)
Title                                    : Forced
Language                                 : Ukrainian
Default                                  : Yes
Forced                                   : Yes

Text #2
ID                                       : 6
Format                                   : UTF-8
Codec ID                                 : S_TEXT/UTF8
Codec ID/Info                            : UTF-8 Plain Text
Duration                                 : 1 h 32 min
Bit rate                                 : 62 b/s
Count of elements                        : 886
Stream size                              : 42.2 KiB (0%)
Title                                    : Full
Language                                 : Ukrainian
Default                                  : No
Forced                                   : No

Text #3
ID                                       : 7
Format                                   : UTF-8
Codec ID                                 : S_TEXT/UTF8
Codec ID/Info                            : UTF-8 Plain Text
Duration                                 : 1 h 28 min
Bit rate                                 : 211 b/s
Count of elements                        : 1835
Stream size                              : 138 KiB (0%)
Title                                    : Commentary
Language                                 : Ukrainian
Default                                  : No
Forced                                   : No

Text #4
ID                                       : 8
Format                                   : UTF-8
Codec ID                                 : S_TEXT/UTF8
Codec ID/Info                            : UTF-8 Plain Text
Duration                                 : 1 h 32 min
Bit rate                                 : 53 b/s
Count of elements                        : 1401
Stream size                              : 36.5 KiB (0%)
Title                                    : Full
Language                                 : English
Default                                  : No
Forced                                   : No

Text #5
ID                                       : 9
Format                                   : UTF-8
Codec ID                                 : S_TEXT/UTF8
Codec ID/Info                            : UTF-8 Plain Text
Duration                                 : 1 h 31 min
Bit rate                                 : 38 b/s
Count of elements                        : 883
Stream size                              : 25.7 KiB (0%)
Title                                    : SDH
Language                                 : English
Default                                  : No
Forced                                   : No

Text #6
ID                                       : 10
Format                                   : UTF-8
Codec ID                                 : S_TEXT/UTF8
Codec ID/Info                            : UTF-8 Plain Text
Duration                                 : 1 h 32 min
Bit rate                                 : 133 b/s
Count of elements                        : 1903
Stream size                              : 90.8 KiB (0%)
Title                                    : Commentary
Language                                 : English
Default                                  : No
Forced                                   : No

Menu
00:00:00.000                             : en:Birthday Picnic
00:04:22.846                             : en:Merida
00:09:17.432                             : en:Family Meal
00:12:53.356                             : en:Legends Are Lessons
00:14:00.256                             : en:Just Listen
00:16:10.469                             : en:Getting Ready
00:17:36.681                             : en:Meet the Lords
00:22:55.791                             : en:The Games
00:27:22.891                             : en:The Argument
00:28:51.229                             : en:Merida Takes Off
00:30:54.853                             : en:The Crafty Carver
00:34:00.372                             : en:The Spell
00:36:03.495                             : en:The Cake
00:39:06.928                             : en:Transformation
00:41:55.096                             : en:Castle Hunt
00:43:27.980                             : en:Triplets' Distraction
00:47:05.740                             : en:Come Out, Wisps
00:48:22.358                             : en:Cauldron Message
00:51:04.061                             : en:Memory
00:52:33.859                             : en:Sunrise
00:54:01.155                             : en:Breakfast
00:54:45.699                             : en:Fishing with Mum
00:57:30.864                             : en:Chasing Wisps
00:59:00.162                             : en:The Ruins
01:02:48.181                             : en:Blockade
01:03:27.387                             : en:Cyrano
01:09:57.735                             : en:The Tapestry
01:10:37.275                             : en:Bear in the Castle
01:12:35.726                             : en:Desperation
01:13:39.498                             : en:The Key
01:15:35.489                             : en:To the Rescue
01:16:59.073                             : en:Showdown
01:17:37.111                             : en:Bear Fight
01:19:48.200                             : en:Second Sunrise
01:23:16.783                             : en:Epilogue
01:24:38.657                             : en:End Credits
01:33:27.602                             : en:Delivery
Світлини




Джерело: &
Особиста оцінка: 0 - не дивився


 Трекер:    Зареєстрований   

Завантажити / скачати мультфільм українською



відео для новачків



 Зареєстрований:   2020-06-04 00:20
 Розмір:   4.65 GB 
 Оцінка мультфільму:   9.8/10 (Голосів: 11)
   
Інші релізи
   Відважна / Brave (2012) DVD9 Ліцензія Beffis  2 / 0   7.49 GB   2015-01-23 10:09 
   Відважна / Brave (2012) 1080p 3D OverUnder Ukr/Eng | Sub Ukr/Eng dinosaurus  3 / 0   8.61 GB   2012-12-31 15:59 
   Відважна / Brave (2012) 720p Ukr/Eng | Sub Ukr/Eng Zeus62  17 / 0   4.23 GB   2012-11-27 12:34 
   Відважна / Brave (2012) Remux 1080p Ukr/Eng | Sub Ukr/Eng 11FrYkT  5 / 0   20.42 GB   2012-11-19 09:29 
   Відважна / Brave (2012) 1080p Ukr/Eng | Sub Ukr/Eng 11FrYkT  16 / 0   6.48 GB   2012-11-18 12:11 
   Відважна / Brave (2012) AVC Ukr | sub Ukr/Eng DеLight  26 / 0   1.46 GB   2012-11-16 09:14 
   Відважна / Brave (2012) Ukr/Eng | Sub Ukr/Eng Gelios  14 / 0   1.75 GB   2012-11-16 08:27 
   Відважна / Brave (2012) |Ліцензія sstonecold1  18 / 0   1.46 GB   2012-11-16 00:07 
Ваш часовий пояс: GMT + 2 Години

Нова тема   Відповісти