По той бік (2015) 1080p

Нові коментарі

Нова тема   Відповісти
Автор Повідомлення
sergiyko.5 
Забанено
Забанено


З нами з: 25.02.16
Востаннє: 29.10.20
Повідомлень: 3648

2020-06-03 16:07  
По той бік (2015) 1080p


По той бік (2015) 1080p

Жанр: драма, трилер
Країна: Україна



Кінокомпанія: S13 Lytvynenko Films
Режисер: Олександр Литвиненко
Актори: Ірина Шут, Роман Мацюта, Іван Шевчук, Василь Русанов, Артем Литвиненко та Віталій Кузьменко

Сюжет:
Молода вчителька дивом виживає в нещасному випадку. Але після зіткнення зі смертю в неї з’являється сила бачити у своїх видіннях місця злочинів. Для неї стирається межа між життям і смертю, дійсністю й сном, правдою та брехнею. Новий дар дівчини здатний назавжди змінити життя мешканців невеликого містечка.


Тривалість: 01:23:03
Якість:

Відео: кодек: розмір кадру: 1920 х 816 бітрейт: 9100 кб/с
Аудіо: мова: українська переклад: оригінал кодек: 2.0 бітрейт: 192 кб/с
Про файл:
General
Unique ID : 331878693383870122383325652942857763627 (0xF9AD82E7C82824123804567F4FF4FB2B)
Complete name : D:\Documents\Torrents\FILMS\По той бік.2015.1080p.sergiyko.
Format :
Format version : Version 4
File size : 5.44 GiB
Duration : 1 h 23 min
Overall bit rate : 9 375 kb/s
Movie name : По той бік 2015 rip by sergiyko
Encoded date : UTC 2020-06-03 13:53:39
Writing application : v47.0.0 ('Black Flag') 64-bit
Writing library : libebml v1.3.10 + v1.5.2
Cover : Yes
Attachments : cover.jpeg

Video
ID : 1
Format : AVC
Format/Info : Advanced Video Codec
Format profile : [email protected]
Format settings : CABAC / 5 Ref Frames
Format settings, CABAC : Yes
Format settings, Reference : 5 frames
Codec ID : V_MPEG4/ISO/AVC
Duration : 1 h 23 min
Bit rate : 9 179 kb/s
Width : 1 920 pixels
Height : 816 pixels
Display aspect ratio : 2.35:1
Frame rate mode : Constant
Frame rate : 50.000 FPS
Color space : YUV
Chroma subsampling : 4:2:0
Bit depth : 8 bits
Scan type : Progressive
Bits/(Pixel*Frame) : 0.117
Stream size : 5.32 GiB (98%)
Title : По той бік 2015
Writing library : core 157 r2969 d4099dd
Encoding settings : cabac=1 / ref=5 / deblock=1:-2:-2 / analyse=0x3:0x133 / me=umh / subme=9 / psy=1 / psy_rd=1.00:0.25 / mixed_ref=1 / me_range=24 / chroma_me=1 / trellis=2 / 8x8dct=1 / cqm=0 / deadzone=6,6 / fast_pskip=1 / chroma_qp_offset=-4 / threads=16 / lookahead_threads=1 / sliced_threads=0 / nr=0 / decimate=0 / interlaced=0 / bluray_compat=0 / constrained_intra=0 / bframes=4 / b_pyramid=2 / b_adapt=2 / b_bias=0 / direct=3 / weightb=1 / open_gop=0 / weightp=2 / keyint=500 / keyint_min=23 / scenecut=40 / intra_refresh=0 / rc_lookahead=60 / rc=crf / mbtree=1 / crf=18.0 / qcomp=0.80 / qpmin=0 / qpmax=69 / qpstep=4 / ip_ratio=1.10 / aq=1:0.50
Language : Ukrainian
Default : Yes
Forced : No

Audio
ID : 2
Format : AC-3
Format/Info : Audio Coding 3
Commercial name : Dolby Digital
Codec ID : A_AC3
Duration : 1 h 23 min
Bit rate mode : Constant
Bit rate : 192 kb/s
Channel(s) : 2 channels
Channel layout : L R
Sampling rate : 48.0 kHz
Frame rate : 31.250 FPS (1536 SPF)
Compression mode : Lossy
Stream size : 114 MiB (2%)
Title : Оригінальна
Language : Ukrainian
Service kind : Complete Main
Default : Yes
Forced : No
Скріншоти:


Ріп: sergiyko


Золотий реліз (завантажене не впливає на рейтинг)
 Трекер:    Зареєстрований   

Завантажити / скачати український фільм



відео для новачків



 Зареєстрований:   2020-06-03 16:07
 Розмір:   5.44 GB 
 Оцінка фільму:   7.6/10 (Голосів: 19)
   
Jurko1996 
Новенький


З нами з: 09.03.19
Востаннє: 04.03.21
Повідомлень: 1

2020-06-05 17:45  
Круто Rolleyes (1) Rolleyes (1)
Axmurow 
Новенький


З нами з: 08.11.19
Востаннє: 06.03.21
Повідомлень: 10

2020-07-27 10:06  
Навіть про такий фільм і не чув. Треба подивитись)
W3223W 
Свій


З нами з: 07.11.18
Востаннє: 04.03.21
Повідомлень: 93

2020-09-08 07:19  
3/10
фінал фільму запоров усе, на жаль.
могло бути набагато краще...
це вже не кажучі про гру актора що шизіка грав, він та мент-це пара "дерев'яніх чоботів".

albrik 
Новенький


З нами з: 30.05.16
Востаннє: 11.01.21
Повідомлень: 7

2020-12-03 00:22  
О Боже!! Яка муть.. Це тільки слабий міг таке зняти. Три рази засипав - думав. що все таки якийсь сюжет появиться.
Ваш часовий пояс: GMT + 2 Години

Нова тема   Відповісти